×

¿Problemas para descargar con Mozilla, EDGE? Deshabilita la opción "Abrir vinculos en una pestaña nueva" tal como lo muestra ésta imagen.

Batman vs. Teenage Mutant Ninja Turtles (2019) WEB DL 1080p Latino

2.055 vistas

Información de Batman vs. Teenage Mutant Ninja Turtles (2019) WEB DL 1080p Latino

batman vs teenage mutant ninja turtles 53235 poster

Datos de la película

  • Calidad: WEBDL
  • Audio: Español Latino AC3 5.1 DVD - Ingles AC3 5.1 iTunes
  • Subtitulos: Español Latino SRT- FORZADOS SRT
  • Resolución: 1912x1072
  • Formato: MKV
  • Codec: H.264
  • Encoder: Chesse92
  • Mediainfo: Clic para Mostrar Datos Ver
  • Batman vs. Teenage Mutant Ninja Turtles (2019) WEB DL 1080p Latino.mkv
    Format                      : Matroska
    Format version              : Version 4
    File size                   : 3.51 GiB
    Duration                    : 1 h 27 min
    Overall bit rate            : 5 765 kb/s
    Movie name                  : Batman vs. Teenage Mutant Ninja Turtles (2019) WEB DL 1080p Latino
    Encoded date                : UTC 2019-05-14 23:25:58
    Writing application         : mkvmerge v30.1.0 ('Forever And More') 64-bit
    Writing library             : libebml v1.3.6 + libmatroska v1.4.9

    Video
    ID                          : 1
    Format                      : AVC
    Format/Info                 : Advanced Video Codec
    Format profile              : High@L4
    Format settings             : CABAC / 4 Ref Frames
    Format settings, CABAC      : Yes
    Format settings, ReFrames   : 4 frames
    Codec ID                    : V_MPEG4/ISO/AVC
    Duration                    : 1 h 27 min
    Bit rate                    : 4 932 kb/s
    Width                       : 1 912 pixels
    Height                      : 1 072 pixels
    Display aspect ratio        : 16:9
    Frame rate mode             : Constant
    Frame rate                  : 23.976 (23976/1000) FPS
    Color space                 : YUV
    Chroma subsampling          : 4:2:0
    Bit depth                   : 8 bits
    Scan type                   : Progressive
    Bits/(Pixel*Frame)          : 0.100
    Stream size                 : 3.00 GiB (86%)
    Title                       : CinemaniaHDD
    Language                    : English
    Default                     : Yes
    Forced                      : No
    Color range                 : Limited
    Color primaries             : BT.709
    Transfer characteristics    : BT.709
    Matrix coefficients         : BT.709

    Audio #1
    ID                          : 2
    Format                      : AC-3
    Format/Info                 : Audio Coding 3
    Commercial name             : Dolby Digital
    Codec ID                    : A_AC3
    Duration                    : 1 h 27 min
    Bit rate mode               : Constant
    Bit rate                    : 448 kb/s
    Channel(s)                  : 6 channels
    Channel layout              : L R C LFE Ls Rs
    Sampling rate               : 48.0 kHz
    Frame rate                  : 31.250 FPS (1536 SPF)
    Bit depth                   : 16 bits
    Compression mode            : Lossy
    Delay relative to video     : -43 ms
    Stream size                 : 279 MiB (8%)
    Title                       : Español latino [CinemaniaHDD]
    Language                    : Spanish
    Service kind                : Complete Main
    Default                     : Yes
    Forced                      : No

    Audio #2
    ID                          : 3
    Format                      : AC-3
    Format/Info                 : Audio Coding 3
    Commercial name             : Dolby Digital
    Codec ID                    : A_AC3
    Duration                    : 1 h 27 min
    Bit rate mode               : Constant
    Bit rate                    : 384 kb/s
    Channel(s)                  : 6 channels
    Channel layout              : L R C LFE Ls Rs
    Sampling rate               : 48.0 kHz
    Frame rate                  : 31.250 FPS (1536 SPF)
    Bit depth                   : 16 bits
    Compression mode            : Lossy
    Delay relative to video     : -43 ms
    Stream size                 : 239 MiB (7%)
    Title                       : Inglés [CinemaniaHDD]
    Language                    : English
    Service kind                : Complete Main
    Default                     : No
    Forced                      : No

    Text #1
    ID                          : 4
    Format                      : UTF-8
    Codec ID                    : S_TEXT/UTF8
    Codec ID/Info               : UTF-8 Plain Text
    Duration                    : 58 min 34 s
    Bit rate                    : 0 b/s
    Count of elements           : 13
    Stream size                 : 255 Bytes (0%)
    Title                       : Forzados [CinemaniaHDD]
    Language                    : Spanish
    Default                     : Yes
    Forced                      : No

    Text #2
    ID                          : 5
    Format                      : UTF-8
    Codec ID                    : S_TEXT/UTF8
    Codec ID/Info               : UTF-8 Plain Text
    Duration                    : 1 h 22 min
    Bit rate                    : 52 b/s
    Count of elements           : 991
    Stream size                 : 31.5 KiB (0%)
    Title                       : Español latino [CinemaniaHDD]
    Language                    : Spanish
    Default                     : No
    Forced                      : No

    Menu
    00:00:00.000                : en:1
    00:09:08.000                : en:2
    00:21:13.000                : en:3
    00:32:21.000                : en:4
    00:41:15.000                : en:5
    00:50:38.000                : en:6
    01:00:42.000                : en:7
    01:11:20.000                : en:8
    01:23:55.000                : en:9

  • Peso: 3.51 GiB

Sinopsis

Batman, Batgirl y Robin forjan una alianza con Las Tortugas Ninja para luchar contra el gran enemigo de estas últimas, Shredder, quien aparentemente ha formado equipo con Ra’s Al Ghul y la Liga de Asesinos para poner en jaque a Gotham.

Ficha técnica

Video trailer de la película

Enlaces de descarga

Rip de Bluray

Descargar Batman vs. Teenage Mutant Ninja Turtles (2019) WEB DL 1080p Latino




Aportes de DPeliculasHDmega la pass es:dpeliculashdmega.org Aportes de CinemaniaHD la pass es:cinemaniahdd.com
Guardado en : Acción , Animación , Familia

Películas relacionadas

  • Un mundo extraño (2022) HD 1080p Latino

    Un mundo extraño (2022) HD 1080p Latino

    2022
    Un mundo extraño (2022) HD 1080p Latino

    1h 42m 2022

    Descargar Un mundo extraño (2022) HD 1080p Latino. Los Clades son una familia conocida en todo el mundo,...

    Director: Thai Bettistea

    Género: Animación

    Actores: Reed Buck

  • Un mundo extraño (2022) REMUX 1080p Latino

    Un mundo extraño (2022) REMUX 1080p Latino

    2022
    Un mundo extraño (2022) REMUX 1080p Latino

    1h 42m 2022

    Descargar Un mundo extraño (2022) REMUX 1080p. Un viaje a una tierra inexplorada y traicionera en la...

    Director: Thai Bettistea

    Género: Animación

    Actores: Reed Buck

  • Espiritu Libre (2023) NF WEB-DL 1080p Latino

    Espiritu Libre (2023) NF WEB-DL 1080p Latino

    2023
    Espiritu Libre (2023) NF WEB-DL 1080p Latino

    1h 49m 2023

    Descargar Espiritu Libre (2023) NF WEB-DL 1080p Latino. La película se basa en la increíble historia...

    Director: Sarah Spillane

    Género: Aventura

    Actores: Vivien Turner

descargar Batman vs. Teenage Mutant Ninja Turtles (2019) WEB DL 1080p Latino WEBDL 1080p gratis, Batman vs. Teenage Mutant Ninja Turtles (2019) WEB DL 1080p Latino WEBDL mega 1 link, Batman vs. Teenage Mutant Ninja Turtles (2019) WEB DL 1080p Latino WEBDL pelicula completa, descargar Batman vs. Teenage Mutant Ninja Turtles (2019) WEB DL 1080p Latino WEBDL gratis en mega.

Batman vs. Teenage Mutant Ninja Turtles (2019) WEB DL 1080p Latino pelicula full hd, Batman vs. Teenage Mutant Ninja Turtles (2019) WEB DL 1080p Latino mega latino, Batman vs. Teenage Mutant Ninja Turtles (2019) WEB DL 1080p Latino 4k latino, Batman vs. Teenage Mutant Ninja Turtles (2019) WEB DL 1080p Latino pelicula completa, Batman vs. Teenage Mutant Ninja Turtles (2019) WEB DL 1080p Latino descargar gratis, descargar Batman vs. Teenage Mutant Ninja Turtles (2019) WEB DL 1080p Latino pelicula latino, Batman vs. Teenage Mutant Ninja Turtles (2019) WEB DL 1080p Latino 1 link mega, Batman vs. Teenage Mutant Ninja Turtles (2019) WEB DL 1080p Latino 1 link google drive, Batman vs. Teenage Mutant Ninja Turtles (2019) WEB DL 1080p Latino hd 1080p latino.
Comentarios 0