Batman V Superman Dawn Of Justice (2016) [EXTENDED] [Ultimate Edition] [Remastered] [IMAX] WEB-DL 1080p Latino – CMHDD

86 vistas
1 estrella2 estrellas3 estrellas4 estrellas5 estrellas (2 votos, promedio: 5,00 de 5)
Cargando...

Información de Batman V Superman Dawn Of Justice (2016) [EXTENDED] [Ultimate Edition] [Remastered] [IMAX] WEB-DL 1080p Latino – CMHDD

Datos de la película

  • Calidad: WEBDL
  • Audio: Se especifica abajo de la Sinopsis
  • Subtitulos: Español Latino SRT- FORZADOS SRT
  • Resolución: 1920x1080p
  • Formato: MKV
  • Codec: H.264
  • Encoder: Dracarys
  • Mediainfo: Clic para Mostrar Datos Ver
  • Format                      : Matroska
    Format version              : Version 4
    File size                   : 9.93 GiB
    Duration                    : 3 h 2 min
    Overall bit rate            : 7 785 kb/s
    Movie name                  : Batman V Superman Dawn Of Justice (2016) [EXTENDED] [Ultimate Edition] [Remastered] [IMAX] WEB-DL 1080p Latino – CMHDD
    Encoded date                : UTC 2021-04-07 14:00:25
    Writing application         : mkvmerge v51.0.0 ('I Wish') 64-bit
    Writing library             : libebml v1.4.0 + libmatroska v1.6.2

    Video
    ID                          : 1
    Format                      : HEVC
    Format/Info                 : High Efficiency Video Coding
    Format profile              : Main 10@L4@Main
    Codec ID                    : V_MPEGH/ISO/HEVC
    Duration                    : 3 h 2 min
    Bit rate                    : 6 498 kb/s
    Width                       : 1 920 pixels
    Height                      : 1 080 pixels
    Display aspect ratio        : 16:9
    Frame rate mode             : Constant
    Frame rate                  : 23.976 (24000/1001) FPS
    Color space                 : YUV
    Chroma subsampling          : 4:2:0
    Bit depth                   : 10 bits
    Bits/(Pixel*Frame)          : 0.131
    Stream size                 : 8.28 GiB (83%)
    Writing library             : x265 3.4+22-ga988fbbac:[Windows][GCC 10.2.0][64 bit] 10bit
    Encoding settings           : cpuid=1111039 / frame-threads=3 / numa-pools=12 / wpp / no-pmode / no-pme / no-psnr / no-ssim / log-level=2 / input-csp=1 / input-res=1920x1080 / interlace=0 / total-frames=262555 / level-idc=0 / high-tier=1 / uhd-bd=0 / ref=3 / no-allow-non-conformance / no-repeat-headers / annexb / no-aud / no-hrd / info / hash=0 / no-temporal-layers / open-gop / min-keyint=24 / keyint=240 / gop-lookahead=0 / bframes=4 / b-adapt=2 / b-pyramid / bframe-bias=0 / rc-lookahead=20 / lookahead-slices=6 / scenecut=40 / hist-scenecut=0 / radl=0 / no-splice / no-intra-refresh / ctu=32 / min-cu-size=8 / no-rect / no-amp / max-tu-size=32 / tu-inter-depth=1 / tu-intra-depth=1 / limit-tu=0 / rdoq-level=0 / dynamic-rd=0.00 / no-ssim-rd / signhide / no-tskip / nr-intra=0 / nr-inter=0 / no-constrained-intra / strong-intra-smoothing / max-merge=3 / limit-refs=1 / no-limit-modes / me=1 / subme=2 / merange=25 / temporal-mvp / no-frame-dup / no-hme / weightp / no-weightb / no-analyze-src-pics / deblock=0:0 / sao / no-sao-non-deblock / rd=3 / selective-sao=4 / early-skip / rskip / no-fast-intra / no-tskip-fast / no-cu-lossless / b-intra / no-splitrd-skip / rdpenalty=0 / psy-rd=2.00 / psy-rdoq=0.00 / no-rd-refine / no-lossless / cbqpoffs=0 / crqpoffs=0 / rc=abr / bitrate=6500 / qcomp=0.60 / qpstep=4 / stats-write=0 / stats-read=2 / cplxblur=20.0 / qblur=0.5 / ipratio=1.40 / pbratio=1.30 / aq-mode=2 / aq-strength=1.00 / cutree / zone-count=0 / no-strict-cbr / qg-size=32 / no-rc-grain / qpmax=69 / qpmin=0 / no-const-vbv / sar=1 / overscan=0 / videoformat=5 / range=0 / colorprim=1 / transfer=1 / colormatrix=1 / chromaloc=0 / display-window=0 / cll=0,0 / min-luma=0 / max-luma=1023 / log2-max-poc-lsb=8 / vui-timing-info / vui-hrd-info / slices=1 / no-opt-qp-pps / no-opt-ref-list-length-pps / no-multi-pass-opt-rps / scenecut-bias=0.05 / hist-threshold=0.03 / no-opt-cu-delta-qp / no-aq-motion / no-hdr10 / no-hdr10-opt / no-dhdr10-opt / no-idr-recovery-sei / analysis-reuse-level=0 / analysis-save-reuse-level=0 / analysis-load-reuse-level=0 / scale-factor=0 / refine-intra=0 / refine-inter=0 / refine-mv=1 / refine-ctu-distortion=0 / no-limit-sao / ctu-info=0 / no-lowpass-dct / refine-analysis-type=0 / copy-pic=1 / max-ausize-factor=1.0 / no-dynamic-refine / no-single-sei / no-hevc-aq / no-svt / no-field / qp-adaptation-range=1.00 / no-scenecut-aware-qpconformance-window-offsets / right=0 / bottom=0 / decoder-max-rate=0
    Default                     : Yes
    Forced                      : No
    Color range                 : Limited
    Color primaries             : BT.709
    Transfer characteristics    : BT.709
    Matrix coefficients         : BT.709

    Audio #1
    ID                          : 2
    Format                      : AC-3
    Format/Info                 : Audio Coding 3
    Commercial name             : Dolby Digital
    Codec ID                    : A_AC3
    Duration                    : 3 h 2 min
    Bit rate mode               : Constant
    Bit rate                    : 512 kb/s
    Channel(s)                  : 6 channels
    Channel layout              : L R C LFE Ls Rs
    Sampling rate               : 48.0 kHz
    Frame rate                  : 31.250 FPS (1536 SPF)
    Compression mode            : Lossy
    Stream size                 : 669 MiB (7%)
    Language                    : Spanish
    Service kind                : Complete Main
    Default                     : Yes
    Forced                      : No

    Audio #2
    ID                          : 3
    Format                      : E-AC-3 JOC
    Format/Info                 : Enhanced AC-3 with Joint Object Coding
    Commercial name             : Dolby Digital Plus with Dolby Atmos
    Codec ID                    : A_EAC3
    Duration                    : 3 h 2 min
    Bit rate mode               : Constant
    Bit rate                    : 768 kb/s
    Channel(s)                  : 6 channels
    Channel layout              : L R C LFE Ls Rs
    Sampling rate               : 48.0 kHz
    Frame rate                  : 31.250 FPS (1536 SPF)
    Compression mode            : Lossy
    Stream size                 : 1 003 MiB (10%)
    Language                    : English
    Service kind                : Complete Main
    Default                     : No
    Forced                      : No
    Complexity index            : 16
    Number of dynamic objects   : 15
    Bed channel count           : 1 channel
    Bed channel configuration   : LFE

    Text #1
    ID                          : 4
    Format                      : UTF-8
    Codec ID                    : S_TEXT/UTF8
    Codec ID/Info               : UTF-8 Plain Text
    Duration                    : 2 h 52 min
    Bit rate                    : 13 b/s
    Count of elements           : 467
    Stream size                 : 16.9 KiB (0%)
    Language                    : Spanish
    Default                     : Yes
    Forced                      : No

    Text #2
    ID                          : 5
    Format                      : UTF-8
    Codec ID                    : S_TEXT/UTF8
    Codec ID/Info               : UTF-8 Plain Text
    Duration                    : 2 h 53 min
    Bit rate                    : 45 b/s
    Count of elements           : 1658
    Stream size                 : 57.4 KiB (0%)
    Language                    : Spanish
    Default                     : No
    Forced                      : No

    Text #3
    ID                          : 6
    Format                      : PGS
    Muxing mode                 : zlib
    Codec ID                    : S_HDMV/PGS
    Codec ID/Info               : Picture based subtitle format used on BDs/HD-DVDs
    Duration                    : 3 h 2 min
    Bit rate                    : 21.1 kb/s
    Count of elements           : 3208
    Stream size                 : 27.4 MiB (0%)
    Language                    : Spanish
    Default                     : No
    Forced                      : No

  • Peso: 9.93 GiB

Sinopsis

Ante el temor de las acciones que pueda llevar a cabo Superman, el vigilante de Gotham City aparece para poner a raya al superhéroe de Metrópolis, mientras que la opinión pública debate cuál es realmente el héroe que necesitan. El hombre de acero y Batman se sumergen en una contienda territorial, pero las cosas se complican cuando una nueva y peligrosa amenaza surge rápidamente, poniendo en jaque la existencia de la humanidad.

 

Latino con partes en ingles: AC3 5.1 – Ingles: E-AC3 5.1

 

 

Ficha técnica

Video trailer de la película

Enlaces de descarga

Rip de Bluray

Descargar Batman V Superman Dawn Of Justice (2016) [EXTENDED] [Ultimate Edition] [Remastered] [IMAX] WEB-DL 1080p Latino – CMHDD




Aportes de DPeliculasHDmega la pass es:dpeliculashdmega.org Aportes de CinemaniaHD la pass es:cinemaniahdd.com
Guardado en : Acción , Aventura , Fantasía

Películas relacionadas

Batman V Superman Dawn Of Justice (2016) [EXTENDED] [Ultimate Edition] [Remastered] [IMAX] WEB-DL 1080p Latino – CMHDD pelicula full hd, Batman V Superman Dawn Of Justice (2016) [EXTENDED] [Ultimate Edition] [Remastered] [IMAX] WEB-DL 1080p Latino – CMHDD mega latino, Batman V Superman Dawn Of Justice (2016) [EXTENDED] [Ultimate Edition] [Remastered] [IMAX] WEB-DL 1080p Latino – CMHDD 4k latino, Batman V Superman Dawn Of Justice (2016) [EXTENDED] [Ultimate Edition] [Remastered] [IMAX] WEB-DL 1080p Latino – CMHDD pelicula completa, Batman V Superman Dawn Of Justice (2016) [EXTENDED] [Ultimate Edition] [Remastered] [IMAX] WEB-DL 1080p Latino – CMHDD descargar gratis, descargar Batman V Superman Dawn Of Justice (2016) [EXTENDED] [Ultimate Edition] [Remastered] [IMAX] WEB-DL 1080p Latino – CMHDD pelicula latino, Batman V Superman Dawn Of Justice (2016) [EXTENDED] [Ultimate Edition] [Remastered] [IMAX] WEB-DL 1080p Latino – CMHDD 1 link mega, Batman V Superman Dawn Of Justice (2016) [EXTENDED] [Ultimate Edition] [Remastered] [IMAX] WEB-DL 1080p Latino – CMHDD 1 link google drive, Batman V Superman Dawn Of Justice (2016) [EXTENDED] [Ultimate Edition] [Remastered] [IMAX] WEB-DL 1080p Latino – CMHDD hd 1080p latino.
Comentarios 1
  • VJFENIXS - 07 abril, 2021

    MIL GRACIAS TREMENDO MATERIAL BUENA CALIDAD DE COLORES [Overall bit rate : 7 785 kb/s] GRACIAS POR LA VERSION EXTENDIDA SALUDES…