Batman V Superman Dawn Of Justice (2016) [EXTENDED] [Ultimate Edition] [Remastered] [IMAX] REMUX 4K HDR Latino – CMHDD

51 vistas
1 estrella2 estrellas3 estrellas4 estrellas5 estrellas (4 votos, promedio: 5,00 de 5)
Cargando...

Información de Batman V Superman Dawn Of Justice (2016) [EXTENDED] [Ultimate Edition] [Remastered] [IMAX] REMUX 4K HDR Latino – CMHDD

Datos de la película

  • Calidad: 4K HDR
  • Audio: Se especifica abajo de la Sinopsis
  • Subtitulos: Español Latino SRT- FORZADOS SRT
  • Resolución: 3840x2160p
  • Formato: MKV
  • Codec: H.264
  • Encoder: Dracarys
  • Mediainfo: Clic para Mostrar Datos Ver
  • Format                      : Matroska
    Format version              : Version 4
    File size                   : 74.5 GiB
    Duration                    : 3 h 2 min
    Overall bit rate mode       : Variable
    Overall bit rate            : 58.4 Mb/s
    Movie name                  : Batman V Superman Dawn Of Justice (2016) [EXTENDED] [Ultimate Edition] [Remastered] [IMAX] REMUX 4K HDR Latino - CMHDD
    Encoded date                : UTC 2021-04-06 12:19:25
    Writing application         : mkvmerge v51.0.0 ('I Wish') 64-bit
    Writing library             : libebml v1.4.0 + libmatroska v1.6.2

    Video
    ID                          : 1
    Format                      : HEVC
    Format/Info                 : High Efficiency Video Coding
    Format profile              : Main 10@L5.1@High
    HDR format                  : SMPTE ST 2086, HDR10 compatible
    Codec ID                    : V_MPEGH/ISO/HEVC
    Duration                    : 3 h 2 min
    Bit rate                    : 52.4 Mb/s
    Width                       : 3 840 pixels
    Height                      : 2 160 pixels
    Display aspect ratio        : 16:9
    Frame rate mode             : Constant
    Frame rate                  : 23.976 (24000/1001) FPS
    Color space                 : YUV
    Chroma subsampling          : 4:2:0 (Type 2)
    Bit depth                   : 10 bits
    Bits/(Pixel*Frame)          : 0.264
    Stream size                 : 66.9 GiB (90%)
    Writing library             : ATEME Titan File 3.9.6 (4.9.6.2)        
    Default                     : Yes
    Forced                      : No
    Color range                 : Limited
    Color primaries             : BT.2020
    Transfer characteristics    : PQ
    Matrix coefficients         : BT.2020 non-constant
    Mastering display color pri : Display P3
    Mastering display luminance : min: 0.0050 cd/m2, max: 4000 cd/m2
    Maximum Content Light Level : 699 cd/m2
    Maximum Frame-Average Light : 530 cd/m2

    Audio #1
    ID                          : 2
    Format                      : AC-3
    Format/Info                 : Audio Coding 3
    Commercial name             : Dolby Digital
    Codec ID                    : A_AC3
    Duration                    : 3 h 2 min
    Bit rate mode               : Constant
    Bit rate                    : 512 kb/s
    Channel(s)                  : 6 channels
    Channel layout              : L R C LFE Ls Rs
    Sampling rate               : 48.0 kHz
    Frame rate                  : 31.250 FPS (1536 SPF)
    Compression mode            : Lossy
    Delay relative to video     : 1 s 0 ms
    Stream size                 : 669 MiB (1%)
    Language                    : Spanish
    Service kind                : Complete Main
    Default                     : Yes
    Forced                      : No

    Audio #2
    ID                          : 3
    Format                      : MLP FBA 16-ch
    Format/Info                 : Meridian Lossless Packing FBA with 16-channel presentation
    Commercial name             : Dolby TrueHD with Dolby Atmos
    Codec ID                    : A_TRUEHD
    Duration                    : 3 h 2 min
    Bit rate mode               : Variable
    Bit rate                    : 4 967 kb/s
    Maximum bit rate            : 8 199 kb/s
    Channel(s)                  : 8 channels
    Channel layout              : L R C LFE Ls Rs Lb Rb
    Sampling rate               : 48.0 kHz
    Frame rate                  : 1 200.000 FPS (40 SPF)
    Compression mode            : Lossless
    Stream size                 : 6.33 GiB (8%)
    Language                    : English
    Default                     : No
    Forced                      : No
    Number of dynamic objects   : 11
    Bed channel count           : 1 channel
    Bed channel configuration   : LFE

    Audio #3
    ID                          : 4
    Format                      : AC-3
    Format/Info                 : Audio Coding 3
    Commercial name             : Dolby Digital
    Codec ID                    : A_AC3
    Duration                    : 3 h 2 min
    Bit rate mode               : Constant
    Bit rate                    : 448 kb/s
    Channel(s)                  : 6 channels
    Channel layout              : L R C LFE Ls Rs
    Sampling rate               : 48.0 kHz
    Frame rate                  : 31.250 FPS (1536 SPF)
    Compression mode            : Lossy
    Stream size                 : 585 MiB (1%)
    Language                    : English
    Service kind                : Complete Main
    Default                     : No
    Forced                      : No

    Text #1
    ID                          : 5
    Format                      : PGS
    Muxing mode                 : zlib
    Codec ID                    : S_HDMV/PGS
    Codec ID/Info               : Picture based subtitle format used on BDs/HD-DVDs
    Duration                    : 3 h 1 min
    Bit rate                    : 21.9 kb/s
    Count of elements           : 3214
    Stream size                 : 28.5 MiB (0%)
    Language                    : Spanish
    Default                     : No
    Forced                      : No

    Text #2
    ID                          : 6
    Format                      : UTF-8
    Codec ID                    : S_TEXT/UTF8
    Codec ID/Info               : UTF-8 Plain Text
    Duration                    : 2 h 52 min
    Bit rate                    : 13 b/s
    Count of elements           : 467
    Stream size                 : 16.9 KiB (0%)
    Language                    : Spanish
    Default                     : Yes
    Forced                      : No

    Text #3
    ID                          : 7
    Format                      : UTF-8
    Codec ID                    : S_TEXT/UTF8
    Codec ID/Info               : UTF-8 Plain Text
    Duration                    : 2 h 55 min
    Bit rate                    : 44 b/s
    Count of elements           : 1659
    Stream size                 : 57.5 KiB (0%)
    Language                    : Spanish
    Default                     : No
    Forced                      : No

    Menu
    00:00:00.000                : en:Chapter 1
    00:10:10.652                : en:Chapter 2
    00:27:00.661                : en:Chapter 3
    00:37:49.225                : en:Chapter 4
    00:46:54.520                : en:Chapter 5
    01:02:04.971                : en:Chapter 6
    01:14:10.613                : en:Chapter 7
    01:28:07.115                : en:Chapter 8
    01:41:46.642                : en:Chapter 9
    01:53:52.617                : en:Chapter 10
    02:02:58.079                : en:Chapter 11
    02:15:04.054                : en:Chapter 12
    02:27:55.075                : en:Chapter 13
    02:36:51.444                : en:Chapter 14
    02:48:28.348                : en:Chapter 15
    02:54:43.765                : en:Chapter 16

  • Peso: 74.5 GiB

Sinopsis

Ante el temor de las acciones que pueda llevar a cabo Superman, el vigilante de Gotham City aparece para poner a raya al superhéroe de Metrópolis, mientras que la opinión pública debate cuál es realmente el héroe que necesitan. El hombre de acero y Batman se sumergen en una contienda territorial, pero las cosas se complican cuando una nueva y peligrosa amenaza surge rápidamente, poniendo en jaque la existencia de la humanidad.

 

Latino con partes en ingles: AC3 5.1 – Ingles: TrueHD 7.1 + AC3 5.1

Ficha técnica

Video trailer de la película

Enlaces de descarga

Rip de Bluray

Descargar Batman V Superman Dawn Of Justice (2016) [EXTENDED] [Ultimate Edition] [Remastered] [IMAX] REMUX 4K HDR Latino – CMHDD




Aportes de DPeliculasHDmega la pass es:dpeliculashdmega.org Aportes de CinemaniaHD la pass es:cinemaniahdd.com
Guardado en : Acción , Aventura , Fantasía

Películas relacionadas

Batman V Superman Dawn Of Justice (2016) [EXTENDED] [Ultimate Edition] [Remastered] [IMAX] REMUX 4K HDR Latino – CMHDD pelicula full hd, Batman V Superman Dawn Of Justice (2016) [EXTENDED] [Ultimate Edition] [Remastered] [IMAX] REMUX 4K HDR Latino – CMHDD mega latino, Batman V Superman Dawn Of Justice (2016) [EXTENDED] [Ultimate Edition] [Remastered] [IMAX] REMUX 4K HDR Latino – CMHDD 4k latino, Batman V Superman Dawn Of Justice (2016) [EXTENDED] [Ultimate Edition] [Remastered] [IMAX] REMUX 4K HDR Latino – CMHDD pelicula completa, Batman V Superman Dawn Of Justice (2016) [EXTENDED] [Ultimate Edition] [Remastered] [IMAX] REMUX 4K HDR Latino – CMHDD descargar gratis, descargar Batman V Superman Dawn Of Justice (2016) [EXTENDED] [Ultimate Edition] [Remastered] [IMAX] REMUX 4K HDR Latino – CMHDD pelicula latino, Batman V Superman Dawn Of Justice (2016) [EXTENDED] [Ultimate Edition] [Remastered] [IMAX] REMUX 4K HDR Latino – CMHDD 1 link mega, Batman V Superman Dawn Of Justice (2016) [EXTENDED] [Ultimate Edition] [Remastered] [IMAX] REMUX 4K HDR Latino – CMHDD 1 link google drive, Batman V Superman Dawn Of Justice (2016) [EXTENDED] [Ultimate Edition] [Remastered] [IMAX] REMUX 4K HDR Latino – CMHDD hd 1080p latino.
Comentarios 10
  • dcita - 07 abril, 2021

    Por favor podrian subir una version no remux de esta pelicula.

    • Dracarys - 07 abril, 2021

      Publicado

  • Gonzalo - 07 abril, 2021

    Subirás una versión mas liviana?

    • Dracarys - 07 abril, 2021

      Publicado

  • k1000 - 06 abril, 2021

    Buenas tardes no se supone q la edición extendida dura 182 minutos???

    • Dracarys - 07 abril, 2021

      En la mediainfo esta la duracion

  • francisco - 06 abril, 2021

    También la irán a sacar en 1080 para los que no tenemos 4K

    • Dracarys - 07 abril, 2021

      Publicado

  • John - 06 abril, 2021

    Va salir versión placebo? De la versión remasterizada?

    • Dracarys - 07 abril, 2021

      Publicado WEB-DL 1080p