Batman V Superman Dawn Of Justice (2016) [EXTENDED] [Ultimate Edition] [Remastered] [IMAX] Full HD 1080p Latino – CMHDD

44 vistas
1 estrella2 estrellas3 estrellas4 estrellas5 estrellas (2 votos, promedio: 5,00 de 5)
Cargando...

Información de Batman V Superman Dawn Of Justice (2016) [EXTENDED] [Ultimate Edition] [Remastered] [IMAX] Full HD 1080p Latino – CMHDD

Datos de la película

  • Calidad: Full 1080p
  • Audio: Se especifica abajo de la Sinopsis
  • Subtitulos: Español Latino SRT- FORZADOS SRT
  • Resolución: 1920x1080p
  • Formato: MKV
  • Codec: H.264
  • Encoder: Dracarys
  • Mediainfo: Clic para Mostrar Datos Ver
  • Format                      : Matroska
    Format version              : Version 4
    File size                   : 24.1 GiB
    Duration                    : 3 h 2 min
    Overall bit rate            : 18.9 Mb/s
    Movie name                  : Batman V Superman Dawn Of Justice (2016) [EXTENDED] [Ultimate Edition] [Remastered] [IMAX] Full HD 1080p Latino – CMHDD
    Encoded date                : UTC 2021-04-07 19:57:41
    Writing application         : mkvmerge v51.0.0 ('I Wish') 64-bit
    Writing library             : libebml v1.4.0 + libmatroska v1.6.2

    Video
    ID                          : 1
    Format                      : AVC
    Format/Info                 : Advanced Video Codec
    Format profile              : High@L4.1
    Format settings             : CABAC / 4 Ref Frames
    Format settings, CABAC      : Yes
    Format settings, Reference  : 4 frames
    Codec ID                    : V_MPEG4/ISO/AVC
    Duration                    : 3 h 2 min
    Bit rate                    : 17.4 Mb/s
    Width                       : 1 920 pixels
    Height                      : 1 080 pixels
    Display aspect ratio        : 16:9
    Frame rate mode             : Constant
    Frame rate                  : 23.976 (24000/1001) FPS
    Color space                 : YUV
    Chroma subsampling          : 4:2:0
    Bit depth                   : 8 bits
    Scan type                   : Progressive
    Bits/(Pixel*Frame)          : 0.350
    Stream size                 : 22.2 GiB (92%)
    Writing library             : x264 core 161 r3048 ->LoRD 
    Encoding settings           : cabac=1 / ref=4 / deblock=1:-3:-3 / analyse=0x3:0x133 / me=umh / subme=10 / psy=1 / psy_rd=1.00:0.00 / mixed_ref=1 / me_range=24 / chroma_me=1 / trellis=2 / 8x8dct=1 / cqm=0 / deadzone=21,11 / fast_pskip=0 / chroma_qp_offset=-2 / threads=12 / lookahead_threads=2 / sliced_threads=0 / nr=0 / decimate=0 / interlaced=0 / bluray_compat=0 / constrained_intra=0 / bframes=8 / b_pyramid=2 / b_adapt=2 / b_bias=0 / direct=3 / weightb=1 / open_gop=0 / weightp=2 / keyint=250 / keyint_min=23 / scenecut=40 / intra_refresh=0 / rc_lookahead=60 / rc=crf / mbtree=0 / crf=17.5 / qcomp=0.66 / qpmin=0 / qpmax=69 / qpstep=4 / vbv_maxrate=62500 / vbv_bufsize=78125 / crf_max=0.0 / nal_hrd=none / filler=0 / ip_ratio=1.20 / pb_ratio=1.20 / aq=3:0.75
    Language                    : English
    Default                     : Yes
    Forced                      : No
    Color range                 : Limited
    Color primaries             : BT.709
    Transfer characteristics    : BT.709
    Matrix coefficients         : BT.709

    Audio #1
    ID                          : 2
    Format                      : AC-3
    Format/Info                 : Audio Coding 3
    Commercial name             : Dolby Digital
    Codec ID                    : A_AC3
    Duration                    : 3 h 2 min
    Bit rate mode               : Constant
    Bit rate                    : 512 kb/s
    Channel(s)                  : 6 channels
    Channel layout              : L R C LFE Ls Rs
    Sampling rate               : 48.0 kHz
    Frame rate                  : 31.250 FPS (1536 SPF)
    Compression mode            : Lossy
    Stream size                 : 669 MiB (3%)
    Language                    : Spanish
    Service kind                : Complete Main
    Default                     : No
    Forced                      : No

    Audio #2
    ID                          : 3
    Format                      : E-AC-3
    Format/Info                 : Enhanced AC-3
    Commercial name             : Dolby Digital Plus
    Codec ID                    : A_EAC3
    Duration                    : 3 h 2 min
    Bit rate mode               : Constant
    Bit rate                    : 1 024 kb/s
    Channel(s)                  : 8 channels
    Channel layout              : L R C LFE Ls Rs Lb Rb
    Sampling rate               : 48.0 kHz
    Frame rate                  : 31.250 FPS (1536 SPF)
    Compression mode            : Lossy
    Stream size                 : 1.31 GiB (5%)
    Language                    : English
    Service kind                : Complete Main
    Default                     : Yes
    Forced                      : No

    Text #1
    ID                          : 4
    Format                      : UTF-8
    Codec ID                    : S_TEXT/UTF8
    Codec ID/Info               : UTF-8 Plain Text
    Duration                    : 2 h 52 min
    Bit rate                    : 13 b/s
    Count of elements           : 467
    Stream size                 : 16.9 KiB (0%)
    Language                    : Spanish
    Default                     : Yes
    Forced                      : No

    Text #2
    ID                          : 5
    Format                      : UTF-8
    Codec ID                    : S_TEXT/UTF8
    Codec ID/Info               : UTF-8 Plain Text
    Duration                    : 2 h 53 min
    Bit rate                    : 45 b/s
    Count of elements           : 1658
    Stream size                 : 57.4 KiB (0%)
    Language                    : Spanish
    Default                     : No
    Forced                      : No

    Text #3
    ID                          : 6
    Format                      : PGS
    Muxing mode                 : zlib
    Codec ID                    : S_HDMV/PGS
    Codec ID/Info               : Picture based subtitle format used on BDs/HD-DVDs
    Duration                    : 3 h 2 min
    Bit rate                    : 21.1 kb/s
    Count of elements           : 3208
    Stream size                 : 27.4 MiB (0%)
    Language                    : Spanish
    Default                     : No
    Forced                      : No

    Menu
    00:00:00.000                : Chapter 1
    00:10:10.652                : Chapter 2
    00:27:00.661                : Chapter 3
    00:37:49.225                : Chapter 4
    00:46:54.520                : Chapter 5
    01:02:04.971                : Chapter 6
    01:14:10.613                : Chapter 7
    01:28:07.115                : Chapter 8
    01:41:46.642                : Chapter 9
    01:53:52.617                : Chapter 10
    02:02:58.079                : Chapter 11
    02:15:04.054                : Chapter 12
    02:27:55.075                : Chapter 13
    02:36:51.444                : Chapter 14
    02:48:28.348                : Chapter 15
    02:54:43.765                : Chapter 16

  • Peso: 24.1 GiB

Sinopsis

Ante el temor de las acciones que pueda llevar a cabo Superman, el vigilante de Gotham City aparece para poner a raya al superhéroe de Metrópolis, mientras que la opinión pública debate cuál es realmente el héroe que necesitan. El hombre de acero y Batman se sumergen en una contienda territorial, pero las cosas se complican cuando una nueva y peligrosa amenaza surge rápidamente, poniendo en jaque la existencia de la humanidad.

 

Latino con partes en ingles: AC3 5.1 – Ingles: E-AC3 7.1

Ficha técnica

Video trailer de la película

Enlaces de descarga

Rip de Bluray

Descargar Batman V Superman Dawn Of Justice (2016) [EXTENDED] [Ultimate Edition] [Remastered] [IMAX] Full HD 1080p Latino – CMHDD




Aportes de DPeliculasHDmega la pass es:dpeliculashdmega.org Aportes de CinemaniaHD la pass es:cinemaniahdd.com
Guardado en : Acción , Aventura , Fantasía

Películas relacionadas

Batman V Superman Dawn Of Justice (2016) [EXTENDED] [Ultimate Edition] [Remastered] [IMAX] Full HD 1080p Latino – CMHDD pelicula full hd, Batman V Superman Dawn Of Justice (2016) [EXTENDED] [Ultimate Edition] [Remastered] [IMAX] Full HD 1080p Latino – CMHDD mega latino, Batman V Superman Dawn Of Justice (2016) [EXTENDED] [Ultimate Edition] [Remastered] [IMAX] Full HD 1080p Latino – CMHDD 4k latino, Batman V Superman Dawn Of Justice (2016) [EXTENDED] [Ultimate Edition] [Remastered] [IMAX] Full HD 1080p Latino – CMHDD pelicula completa, Batman V Superman Dawn Of Justice (2016) [EXTENDED] [Ultimate Edition] [Remastered] [IMAX] Full HD 1080p Latino – CMHDD descargar gratis, descargar Batman V Superman Dawn Of Justice (2016) [EXTENDED] [Ultimate Edition] [Remastered] [IMAX] Full HD 1080p Latino – CMHDD pelicula latino, Batman V Superman Dawn Of Justice (2016) [EXTENDED] [Ultimate Edition] [Remastered] [IMAX] Full HD 1080p Latino – CMHDD 1 link mega, Batman V Superman Dawn Of Justice (2016) [EXTENDED] [Ultimate Edition] [Remastered] [IMAX] Full HD 1080p Latino – CMHDD 1 link google drive, Batman V Superman Dawn Of Justice (2016) [EXTENDED] [Ultimate Edition] [Remastered] [IMAX] Full HD 1080p Latino – CMHDD hd 1080p latino.
Comentarios 0