Batman V Superman Dawn Of Justice (2016) [EXTENDED] Full HD 1080p Latino – CMHDD

314 vistas
1 estrella2 estrellas3 estrellas4 estrellas5 estrellas (Ninguna valoración todavía)
Cargando...

Información de Batman V Superman Dawn Of Justice (2016) [EXTENDED] Full HD 1080p Latino – CMHDD

Datos de la película

  • Calidad: Full 1080p
  • Audio: Se especifica abajo de la Sinopsis
  • Subtitulos: Español Latino SRT- FORZADOS SRT
  • Resolución: 1920x1080p
  • Formato: MKV
  • Codec: H.264
  • Encoder: Dracarys
  • Mediainfo: Clic para Mostrar Datos Ver
  • Format                      : Matroska
    Format version              : Version 4
    File size                   : 17.9 GiB
    Duration                    : 3 h 2 min
    Overall bit rate mode       : Variable
    Overall bit rate            : 14.0 Mb/s
    Movie name                  : Batman V Superman Dawn Of Justice (2016) [EXTENDED] Full HD 1080p Latino - CMHDD
    Encoded date                : UTC 2021-01-28 17:34:56
    Writing application         : mkvmerge v51.0.0 ('I Wish') 64-bit
    Writing library             : libebml v1.4.0 + libmatroska v1.6.2

    Video
    ID                          : 1
    Format                      : AVC
    Format/Info                 : Advanced Video Codec
    Format profile              : High@L4.1
    Format settings             : CABAC / 4 Ref Frames
    Format settings, CABAC      : Yes
    Format settings, Reference  : 4 frames
    Codec ID                    : V_MPEG4/ISO/AVC
    Duration                    : 3 h 2 min
    Bit rate                    : 8 481 kb/s
    Width                       : 1 920 pixels
    Height                      : 1 080 pixels
    Display aspect ratio        : 16:9
    Frame rate mode             : Constant
    Frame rate                  : 23.976 (24000/1001) FPS
    Color space                 : YUV
    Chroma subsampling          : 4:2:0
    Bit depth                   : 8 bits
    Scan type                   : Progressive
    Bits/(Pixel*Frame)          : 0.171
    Stream size                 : 10.8 GiB (60%)
    Writing library             : x264 core 157 r2935 545de2f
    Encoding settings           : cabac=1 / ref=4 / deblock=1:0:0 / analyse=0x3:0x133 / me=tesa / subme=11 / psy=1 / psy_rd=1.00:0.00 / mixed_ref=1 / me_range=24 / chroma_me=1 / trellis=2 / 8x8dct=1 / cqm=0 / deadzone=21,11 / fast_pskip=0 / chroma_qp_offset=-2 / threads=24 / lookahead_threads=6 / sliced_threads=0 / nr=0 / decimate=1 / interlaced=0 / bluray_compat=0 / constrained_intra=0 / bframes=16 / b_pyramid=2 / b_adapt=2 / b_bias=0 / direct=3 / weightb=1 / open_gop=0 / weightp=2 / keyint=240 / keyint_min=24 / scenecut=40 / intra_refresh=0 / rc_lookahead=60 / rc=crf / mbtree=1 / crf=20.0 / qcomp=0.60 / qpmin=0 / qpmax=69 / qpstep=4 / vbv_maxrate=62500 / vbv_bufsize=78125 / crf_max=0.0 / nal_hrd=none / filler=0 / ip_ratio=1.40 / aq=1:1.00
    Default                     : Yes
    Forced                      : No
    Color range                 : Limited
    Color primaries             : BT.709
    Transfer characteristics    : BT.709
    Matrix coefficients         : BT.709

    Audio #1
    ID                          : 2
    Format                      : AC-3
    Format/Info                 : Audio Coding 3
    Commercial name             : Dolby Digital
    Codec ID                    : A_AC3
    Duration                    : 3 h 2 min
    Bit rate mode               : Constant
    Bit rate                    : 512 kb/s
    Channel(s)                  : 6 channels
    Channel layout              : L R C LFE Ls Rs
    Sampling rate               : 48.0 kHz
    Frame rate                  : 31.250 FPS (1536 SPF)
    Compression mode            : Lossy
    Delay relative to video     : 1 s 0 ms
    Stream size                 : 669 MiB (4%)
    Language                    : Spanish
    Service kind                : Complete Main
    Default                     : Yes
    Forced                      : No

    Audio #2
    ID                          : 3
    Format                      : MLP FBA 16-ch
    Format/Info                 : Meridian Lossless Packing FBA with 16-channel presentation
    Commercial name             : Dolby TrueHD with Dolby Atmos
    Codec ID                    : A_TRUEHD
    Duration                    : 3 h 2 min
    Bit rate mode               : Variable
    Bit rate                    : 4 967 kb/s
    Maximum bit rate            : 8 199 kb/s
    Channel(s)                  : 8 channels
    Channel layout              : L R C LFE Ls Rs Lb Rb
    Sampling rate               : 48.0 kHz
    Frame rate                  : 1 200.000 FPS (40 SPF)
    Compression mode            : Lossless
    Stream size                 : 6.33 GiB (35%)
    Language                    : English
    Default                     : No
    Forced                      : No
    Number of dynamic objects   : 11
    Bed channel count           : 1 channel
    Bed channel configuration   : LFE

    Text #1
    ID                          : 4
    Format                      : PGS
    Muxing mode                 : zlib
    Codec ID                    : S_HDMV/PGS
    Codec ID/Info               : Picture based subtitle format used on BDs/HD-DVDs
    Duration                    : 3 h 2 min
    Bit rate                    : 21.1 kb/s
    Count of elements           : 3208
    Stream size                 : 27.4 MiB (0%)
    Language                    : Spanish
    Default                     : No
    Forced                      : No

    Text #2
    ID                          : 5
    Format                      : UTF-8
    Codec ID                    : S_TEXT/UTF8
    Codec ID/Info               : UTF-8 Plain Text
    Duration                    : 2 h 52 min
    Bit rate                    : 13 b/s
    Count of elements           : 467
    Stream size                 : 16.9 KiB (0%)
    Language                    : Spanish
    Default                     : Yes
    Forced                      : No

    Text #3
    ID                          : 6
    Format                      : UTF-8
    Codec ID                    : S_TEXT/UTF8
    Codec ID/Info               : UTF-8 Plain Text
    Duration                    : 2 h 53 min
    Bit rate                    : 45 b/s
    Count of elements           : 1658
    Stream size                 : 57.4 KiB (0%)
    Language                    : Spanish
    Default                     : No
    Forced                      : No

    Menu
    00:00:00.000                : :00:00:00.000
    00:10:10.652                : :00:10:10.652
    00:27:00.661                : :00:27:00.661
    00:37:49.225                : :00:37:49.225
    00:46:54.520                : :00:46:54.520
    01:02:04.971                : :01:02:04.971
    01:14:10.613                : :01:14:10.613
    01:28:07.115                : :01:28:07.115
    01:41:46.642                : :01:41:46.642
    01:53:52.617                : :01:53:52.617
    02:02:58.079                : :02:02:58.079
    02:15:04.054                : :02:15:04.054
    02:27:55.075                : :02:27:55.075
    02:36:51.444                : :02:36:51.444
    02:48:27.514                : :02:48:27.514
    02:54:43.765                : :02:54:43.765

  • Peso: 17.9 GiB

Sinopsis

Ante el temor de las acciones que pueda llevar a cabo Superman, el vigilante de Gotham City aparece para poner a raya al superhéroe de Metrópolis, mientras que la opinión pública debate cuál es realmente el héroe que necesitan. El hombre de acero y Batman se sumergen en una contienda territorial, pero las cosas se complican cuando una nueva y peligrosa amenaza surge rápidamente, poniendo en jaque la existencia de la humanidad.

Latino con partes en ingles: AC3 5.1 – Ingles: TrueHD 7.1

Ficha técnica

Video trailer de la película

Enlaces de descarga

Rip de Bluray

Descargar Batman V Superman Dawn Of Justice (2016) [EXTENDED] Full HD 1080p Latino – CMHDD




Aportes de DPeliculasHDmega la pass es:dpeliculashdmega.org Aportes de CinemaniaHD la pass es:cinemaniahdd.com
Guardado en : Acción , Aventura , Fantasía

Películas relacionadas

Batman V Superman Dawn Of Justice (2016) [EXTENDED] Full HD 1080p Latino – CMHDD pelicula full hd, Batman V Superman Dawn Of Justice (2016) [EXTENDED] Full HD 1080p Latino – CMHDD mega latino, Batman V Superman Dawn Of Justice (2016) [EXTENDED] Full HD 1080p Latino – CMHDD 4k latino, Batman V Superman Dawn Of Justice (2016) [EXTENDED] Full HD 1080p Latino – CMHDD pelicula completa, Batman V Superman Dawn Of Justice (2016) [EXTENDED] Full HD 1080p Latino – CMHDD descargar gratis, descargar Batman V Superman Dawn Of Justice (2016) [EXTENDED] Full HD 1080p Latino – CMHDD pelicula latino, Batman V Superman Dawn Of Justice (2016) [EXTENDED] Full HD 1080p Latino – CMHDD 1 link mega, Batman V Superman Dawn Of Justice (2016) [EXTENDED] Full HD 1080p Latino – CMHDD 1 link google drive, Batman V Superman Dawn Of Justice (2016) [EXTENDED] Full HD 1080p Latino – CMHDD hd 1080p latino.
Comentarios 2
  • Melvin - 29 marzo, 2021

    Ayuda necesito los subtitulos forzados,pero no quiero descargarla de nuevo (Porque ya la tengo) por favor ayuda

    • Dracarys - 29 marzo, 2021

      Como los vas a borrar si están incluidos en el MKV