Batman: The Long Halloween, Part Two (2021) WEB-DL 1080p Latino

48 vistas
1 estrella2 estrellas3 estrellas4 estrellas5 estrellas (Ninguna valoración todavía)
Cargando...

Información de Batman: The Long Halloween, Part Two (2021) WEB-DL 1080p Latino

Datos de la película

  • Calidad:
  • Audio: Español Latino AC3 5.1 WEB-DL - Ingles AC3 5.1 WEB-DL
  • Subtitulos: Español Latino SRT- FORZADOS SRT
  • Resolución: 1920x1080
  • Formato: MKV
  • Codec: H.264
  • Encoder: cinemaniahdd
  • Mediainfo: Clic para Mostrar Datos Ver
  • Batman. The Long Halloween Part 2 (2021) WEB-DL 1080p Latino [CNMNHDD].mkv
    Format                      : Matroska
    Format version              : Version 4
    File size                   : 3.39 GiB
    Duration                    : 1 h 27 min
    Overall bit rate            : 5 580 kb/s
    Movie name                  : Batman. The Long Halloween Part 2 (2021) - CinemaniaHDD.Net
    Encoded date                : UTC 2021-07-27 00:46:52
    Writing application         : mkvmerge v56.1.0 ('My Friend') 64-bit
    Writing library             : libebml v1.4.2 + libmatroska v1.6.4

    Video
    ID                          : 1
    Format                      : AVC
    Format/Info                 : Advanced Video Codec
    Format profile              : High@L4
    Format settings             : CABAC / 2 Ref Frames
    Format settings, CABAC      : Yes
    Format settings, Reference  : 2 frames
    Codec ID                    : V_MPEG4/ISO/AVC
    Duration                    : 1 h 27 min
    Bit rate                    : 4 810 kb/s
    Width                       : 1 920 pixels
    Height                      : 1 080 pixels
    Display aspect ratio        : 16:9
    Frame rate mode             : Constant
    Frame rate                  : 23.976 (24000/1001) FPS
    Color space                 : YUV
    Chroma subsampling          : 4:2:0
    Bit depth                   : 8 bits
    Scan type                   : Progressive
    Bits/(Pixel*Frame)          : 0.097
    Stream size                 : 2.93 GiB (86%)
    Title                       : CinemaniaHDD
    Writing library             : x264 core 155 r2901 7d0ff22
    Default                     : Yes
    Forced                      : No
    Color range                 : Limited
    Color primaries             : BT.709
    Transfer characteristics    : BT.709
    Matrix coefficients         : BT.709

    Audio #1
    ID                          : 2
    Format                      : AC-3
    Format/Info                 : Audio Coding 3
    Commercial name             : Dolby Digital
    Codec ID                    : A_AC3
    Duration                    : 1 h 27 min
    Bit rate mode               : Constant
    Bit rate                    : 384 kb/s
    Channel(s)                  : 6 channels
    Channel layout              : L R C LFE Ls Rs
    Sampling rate               : 48.0 kHz
    Frame rate                  : 31.250 FPS (1536 SPF)
    Compression mode            : Lossy
    Stream size                 : 239 MiB (7%)
    Title                       : Español latino [CinemaniaHDD]
    Language                    : Spanish
    Service kind                : Complete Main
    Default                     : Yes
    Forced                      : No

    Audio #2
    ID                          : 3
    Format                      : AC-3
    Format/Info                 : Audio Coding 3
    Commercial name             : Dolby Digital
    Codec ID                    : A_AC3
    Duration                    : 1 h 27 min
    Bit rate mode               : Constant
    Bit rate                    : 384 kb/s
    Channel(s)                  : 6 channels
    Channel layout              : L R C LFE Ls Rs
    Sampling rate               : 48.0 kHz
    Frame rate                  : 31.250 FPS (1536 SPF)
    Compression mode            : Lossy
    Stream size                 : 239 MiB (7%)
    Title                       : Inglés [CinemaniaHDD]
    Language                    : English
    Service kind                : Complete Main
    Default                     : No
    Forced                      : No

    Text #1
    ID                          : 4
    Format                      : UTF-8
    Codec ID                    : S_TEXT/UTF8
    Codec ID/Info               : UTF-8 Plain Text
    Duration                    : 1 h 17 min
    Bit rate                    : 0 b/s
    Count of elements           : 20
    Stream size                 : 549 Bytes (0%)
    Title                       : Forzados [CinemaniaHDD]
    Language                    : Spanish
    Default                     : Yes
    Forced                      : Yes

    Text #2
    ID                          : 5
    Format                      : UTF-8
    Codec ID                    : S_TEXT/UTF8
    Codec ID/Info               : UTF-8 Plain Text
    Duration                    : 1 h 25 min
    Bit rate                    : 40 b/s
    Count of elements           : 834
    Stream size                 : 25.1 KiB (0%)
    Title                       : Español latino [CinemaniaHDD]
    Language                    : Spanish
    Default                     : No
    Forced                      : No

     

  • Peso: 3.39 GiB

Sinopsis

Mientras el joven justiciero de Gotham City, Batman, lucha por perseguir a un brutal asesino en serie, el fiscal de distrito Harvey Dent queda atrapado en una disputa que involucra a la familia criminal de los Falcones.

Ficha técnica

  • Titulo original: Batman: The Long Halloween, Part Two
  • Fecha de lanzamiento: 26-07-2021 (United States of America)
  • Director: Chris Palmer
  • Género: Acción, Animación, Crimen, Misterio
  • Puntuación: 0.0 0 votos
  • Duración:
    0h 0m

Video trailer de la película

Enlaces de descarga

Rip de Bluray

Descargar Batman: The Long Halloween, Part Two (2021) WEB-DL 1080p Latino




Aportes de DPeliculasHDmega la pass es:dpeliculashdmega.org Aportes de CinemaniaHD la pass es:cinemaniahdd.com
Guardado en : Acción , Animación , Crimen , Misterio

Películas relacionadas

Batman: The Long Halloween, Part Two (2021) WEB-DL 1080p Latino pelicula full hd, Batman: The Long Halloween, Part Two (2021) WEB-DL 1080p Latino mega latino, Batman: The Long Halloween, Part Two (2021) WEB-DL 1080p Latino 4k latino, Batman: The Long Halloween, Part Two (2021) WEB-DL 1080p Latino pelicula completa, Batman: The Long Halloween, Part Two (2021) WEB-DL 1080p Latino descargar gratis, descargar Batman: The Long Halloween, Part Two (2021) WEB-DL 1080p Latino pelicula latino, Batman: The Long Halloween, Part Two (2021) WEB-DL 1080p Latino 1 link mega, Batman: The Long Halloween, Part Two (2021) WEB-DL 1080p Latino 1 link google drive, Batman: The Long Halloween, Part Two (2021) WEB-DL 1080p Latino hd 1080p latino.
Comentarios 0