×

¿Problemas para descargar con Mozilla, EDGE? Deshabilita la opción "Abrir vinculos en una pestaña nueva" tal como lo muestra ésta imagen.

Batman: El Largo Halloween, Parte 1 (2021) HD 1080p Latino

245 vistas

Información de Batman: El Largo Halloween, Parte 1 (2021) HD 1080p Latino

Datos de la película

  • Calidad: 1080p
  • Audio: Español Latino AC3 5.1 BLURAY - Ingles AC3 5.1 BLURAY
  • Subtitulos: Español Latino SRT- FORZADOS SRT
  • Resolución: 1920x1080p
  • Formato: MKV
  • Codec: H.264
  • Encoder: Melkor
  • Mediainfo: Clic para Mostrar Datos Ver
  • Batman El Largo Halloween (2021) HD 1080p Latino.mkv
    Format                      : Matroska
    Format version              : Version 4
    File size                   : 3.34 GiB
    Duration                    : 1 h 25 min
    Overall bit rate            : 5 590 kb/s
    Movie name                  : Batman The Long Halloween (2021) CinemaniaHDD.Net
    Encoded date                : UTC 2021-06-19 17:26:55
    Writing application         : mkvmerge v56.1.0 ('My Friend') 64-bit
    Writing library             : libebml v1.4.2 + libmatroska v1.6.4
    Attachments                 : CINEMANIAHD.png

    Video
    ID                          : 1
    Format                      : AVC
    Format/Info                 : Advanced Video Codec
    Format profile              : High@L4.1
    Format settings             : CABAC / 4 Ref Frames
    Format settings, CABAC      : Yes
    Format settings, Reference  : 4 frames
    Codec ID                    : V_MPEG4/ISO/AVC
    Duration                    : 1 h 25 min
    Bit rate                    : 4 500 kb/s
    Width                       : 1 920 pixels
    Height                      : 1 080 pixels
    Display aspect ratio        : 16:9
    Frame rate mode             : Constant
    Frame rate                  : 23.976 (24000/1001) FPS
    Color space                 : YUV
    Chroma subsampling          : 4:2:0
    Bit depth                   : 8 bits
    Scan type                   : Progressive
    Bits/(Pixel*Frame)          : 0.091
    Stream size                 : 2.69 GiB (80%)
    Title                       : HD1080p [CinemaniaHDD]
    Writing library             : x264 core 157 r2935 545de2f
    Encoding settings           : cabac=1 / ref=4 / deblock=1:1:1 / analyse=0x3:0x133 / me=umh / subme=9 / psy=1 / psy_rd=0.40:0.00 / mixed_ref=1 / me_range=16 / chroma_me=1 / trellis=2 / 8x8dct=1 / cqm=0 / deadzone=21,11 / fast_pskip=1 / chroma_qp_offset=-2 / threads=24 / lookahead_threads=2 / sliced_threads=0 / nr=0 / decimate=1 / interlaced=0 / bluray_compat=0 / constrained_intra=0 / bframes=5 / b_pyramid=2 / b_adapt=2 / b_bias=0 / direct=3 / weightb=1 / open_gop=0 / weightp=2 / keyint=240 / keyint_min=24 / scenecut=40 / intra_refresh=0 / rc_lookahead=60 / rc=2pass / mbtree=1 / bitrate=4500 / ratetol=1.0 / qcomp=0.60 / qpmin=0 / qpmax=69 / qpstep=4 / cplxblur=20.0 / qblur=0.5 / vbv_maxrate=62500 / vbv_bufsize=78125 / nal_hrd=none / filler=0 / ip_ratio=1.40 / aq=1:0.60
    Default                     : Yes
    Forced                      : Yes
    Color range                 : Limited
    Color primaries             : BT.709
    Transfer characteristics    : BT.709
    Matrix coefficients         : BT.709

    Audio #1
    ID                          : 2
    Format                      : AC-3
    Format/Info                 : Audio Coding 3
    Commercial name             : Dolby Digital
    Codec ID                    : A_AC3
    Duration                    : 1 h 25 min
    Bit rate mode               : Constant
    Bit rate                    : 640 kb/s
    Channel(s)                  : 6 channels
    Channel layout              : L R C LFE Ls Rs
    Sampling rate               : 48.0 kHz
    Frame rate                  : 31.250 FPS (1536 SPF)
    Compression mode            : Lossy
    Delay relative to video     : -5 ms
    Stream size                 : 391 MiB (11%)
    Title                       : Español Latino [CinemaniaHDD]
    Language                    : Spanish
    Service kind                : Complete Main
    Default                     : Yes
    Forced                      : No

    Audio #2
    ID                          : 3
    Format                      : AC-3
    Format/Info                 : Audio Coding 3
    Commercial name             : Dolby Digital
    Codec ID                    : A_AC3
    Duration                    : 1 h 25 min
    Bit rate mode               : Constant
    Bit rate                    : 448 kb/s
    Channel(s)                  : 6 channels
    Channel layout              : L R C LFE Ls Rs
    Sampling rate               : 48.0 kHz
    Frame rate                  : 31.250 FPS (1536 SPF)
    Compression mode            : Lossy
    Delay relative to video     : -5 ms
    Stream size                 : 274 MiB (8%)
    Title                       : Ingles [CinemaniaHDD]
    Language                    : English
    Service kind                : Complete Main
    Default                     : No
    Forced                      : No

    Text #1
    ID                          : 4
    Format                      : UTF-8
    Codec ID                    : S_TEXT/UTF8
    Codec ID/Info               : UTF-8 Plain Text
    Duration                    : 1 h 20 min
    Bit rate                    : 1 b/s
    Count of elements           : 27
    Stream size                 : 735 Bytes (0%)
    Title                       : Forzados-SRT [CinemaniaHDD]
    Language                    : Spanish
    Default                     : Yes
    Forced                      : Yes

    Text #2
    ID                          : 5
    Format                      : UTF-8
    Codec ID                    : S_TEXT/UTF8
    Codec ID/Info               : UTF-8 Plain Text
    Duration                    : 1 h 24 min
    Bit rate                    : 48 b/s
    Count of elements           : 937
    Stream size                 : 29.7 KiB (0%)
    Title                       : Español-SRT [CinemaniaHDD]
    Language                    : Spanish
    Default                     : No
    Forced                      : No

    Menu
    00:00:00.000                : :Chapter 01
    00:08:40.145                : :Chapter 02
    00:17:11.864                : :Chapter 03
    00:26:31.507                : :Chapter 04
    00:34:16.972                : :Chapter 05
    00:44:09.730                : :Chapter 06
    00:54:10.289                : :Chapter 07
    01:01:14.754                : :Chapter 08
    01:08:22.807                : :Chapter 09
    01:14:29.507                : :Chapter 10
    01:21:31.136                : :Chapter 11

  • Peso: 3.34 GiB

Sinopsis

Descargar Batman: El Largo Halloween, Parte 1 (2021) HD 1080p Latino. Batman investiga una serie de asesinatos cometidos en Halloween. Un brutal asesinato en Halloween hace que el joven justiciero de Gotham, Batman, forme un pacto con el capitán de policía James Gordan y el fiscal de distrito Harvey Dent para acabar con The Roman, jefe de la notoria y poderosa familia Falcone Crime. Después de que se produzcan más muertes en Acción de Gracias y Navidad, queda claro que están lidiando con un asesino en serie, cuya identidad se vuelve más difícil de discernir con cada pista contradictoria.

Ficha técnica

Video trailer de la película

Enlaces de descarga

Rip de Bluray

Descargar Batman: El Largo Halloween, Parte 1 (2021) HD 1080p Latino




Aportes de DPeliculasHDmega la pass es:dpeliculashdmega.org Aportes de CinemaniaHD la pass es:cinemaniahdd.com
Guardado en : Acción , Animación , Crimen , HD 1080p , Misterio

Películas relacionadas

descargar Batman: El Largo Halloween, Parte 1 (2021) HD 1080p Latino 1080p 1080p gratis, Batman: El Largo Halloween, Parte 1 (2021) HD 1080p Latino 1080p mega 1 link, Batman: El Largo Halloween, Parte 1 (2021) HD 1080p Latino 1080p pelicula completa, descargar Batman: El Largo Halloween, Parte 1 (2021) HD 1080p Latino 1080p gratis en mega.

Batman: El Largo Halloween, Parte 1 (2021) HD 1080p Latino pelicula full hd, Batman: El Largo Halloween, Parte 1 (2021) HD 1080p Latino mega latino, Batman: El Largo Halloween, Parte 1 (2021) HD 1080p Latino 4k latino, Batman: El Largo Halloween, Parte 1 (2021) HD 1080p Latino pelicula completa, Batman: El Largo Halloween, Parte 1 (2021) HD 1080p Latino descargar gratis, descargar Batman: El Largo Halloween, Parte 1 (2021) HD 1080p Latino pelicula latino, Batman: El Largo Halloween, Parte 1 (2021) HD 1080p Latino 1 link mega, Batman: El Largo Halloween, Parte 1 (2021) HD 1080p Latino 1 link google drive, Batman: El Largo Halloween, Parte 1 (2021) HD 1080p Latino hd 1080p latino.
Comentarios 0