×

¿Problemas para descargar con Mozilla, EDGE? Deshabilita la opción "Abrir vinculos en una pestaña nueva" tal como lo muestra ésta imagen.

Batman Begins (2005) REMUX 4K HDR Latino – CMHDD

362 vistas

Información de Batman Begins (2005) REMUX 4K HDR Latino – CMHDD

Datos de la película

  • Calidad: 4K HDR
  • Audio: Español Latino AC3 5.1 BLURAY - Ingles DTS 5.1 BLURAY
  • Subtitulos: Español Latino PGS
  • Resolución: 3840x2160p
  • Formato: MKV
  • Codec: H.264
  • Encoder: Dracarys
  • Mediainfo: Clic para Mostrar Datos Ver
  • Format                      : Matroska
    Format version              : Version 4
    File size                   : 56.2 GiB
    Duration                    : 2 h 20 min
    Overall bit rate mode       : Variable
    Overall bit rate            : 57.5 Mb/s
    Movie name                  : Batman Begins (2005) REMUX 4K HDR Latino - CMHDD
    Encoded date                : UTC 2021-03-29 16:46:08
    Writing application         : mkvmerge v51.0.0 ('I Wish') 64-bit
    Writing library             : libebml v1.4.0 + libmatroska v1.6.2
    Cover                       : Yes
    Attachments                 : cover.jpg

    Video
    ID                          : 1
    ID in the original source m : 4113 (0x1011)
    Format                      : HEVC
    Format/Info                 : High Efficiency Video Coding
    Format profile              : Main 10@L5.1@High
    HDR format                  : SMPTE ST 2086, HDR10 compatible
    Codec ID                    : V_MPEGH/ISO/HEVC
    Duration                    : 2 h 20 min
    Bit rate                    : 52.4 Mb/s
    Width                       : 3 840 pixels
    Height                      : 2 160 pixels
    Display aspect ratio        : 16:9
    Frame rate mode             : Constant
    Frame rate                  : 23.976 (24000/1001) FPS
    Color space                 : YUV
    Chroma subsampling          : 4:2:0 (Type 2)
    Bit depth                   : 10 bits
    Bits/(Pixel*Frame)          : 0.264
    Stream size                 : 51.3 GiB (91%)
    Default                     : Yes
    Forced                      : No
    Color range                 : Limited
    Color primaries             : BT.2020
    Transfer characteristics    : PQ
    Matrix coefficients         : BT.2020 non-constant
    Mastering display color pri : Display P3
    Mastering display luminance : min: 0.0050 cd/m2, max: 4000 cd/m2
    Maximum Content Light Level : 992 cd/m2
    Maximum Frame-Average Light : 226 cd/m2
    Original source medium      : Blu-ray

    Audio #1
    ID                          : 2
    ID in the original source m : 4354 (0x1102)
    Format                      : AC-3
    Format/Info                 : Audio Coding 3
    Commercial name             : Dolby Digital
    Codec ID                    : A_AC3
    Duration                    : 2 h 20 min
    Bit rate mode               : Constant
    Bit rate                    : 640 kb/s
    Channel(s)                  : 6 channels
    Channel layout              : L R C LFE Ls Rs
    Sampling rate               : 48.0 kHz
    Frame rate                  : 31.250 FPS (1536 SPF)
    Compression mode            : Lossy
    Delay relative to video     : 501 ms
    Stream size                 : 641 MiB (1%)
    Language                    : Spanish
    Service kind                : Complete Main
    Default                     : Yes
    Forced                      : No
    Original source medium      : Blu-ray

    Audio #2
    ID                          : 3
    ID in the original source m : 4352 (0x1100)
    Format                      : DTS XLL
    Format/Info                 : Digital Theater Systems
    Commercial name             : DTS-HD Master Audio
    Codec ID                    : A_DTS
    Duration                    : 2 h 20 min
    Bit rate mode               : Variable
    Bit rate                    : 4 382 kb/s
    Channel(s)                  : 6 channels
    Channel layout              : C L R Ls Rs LFE
    Sampling rate               : 48.0 kHz
    Frame rate                  : 93.750 FPS (512 SPF)
    Bit depth                   : 24 bits
    Compression mode            : Lossless
    Stream size                 : 4.29 GiB (8%)
    Language                    : English
    Default                     : No
    Forced                      : No
    Original source medium      : Blu-ray

    Text
    ID                          : 4
    ID in the original source m : 4770 (0x12A2)
    Format                      : PGS
    Muxing mode                 : zlib
    Codec ID                    : S_HDMV/PGS
    Codec ID/Info               : Picture based subtitle format used on BDs/HD-DVDs
    Duration                    : 2 h 19 min
    Bit rate                    : 26.7 kb/s
    Count of elements           : 2788
    Stream size                 : 26.5 MiB (0%)
    Language                    : Spanish
    Default                     : No
    Forced                      : No
    Original source medium      : Blu-ray

    Menu
    00:00:00.000                : en:Chapter 01
    00:03:39.385                : en:Chapter 02
    00:07:31.325                : en:Chapter 03
    00:11:34.110                : en:Chapter 04
    00:16:15.683                : en:Chapter 05
    00:19:44.433                : en:Chapter 06
    00:24:19.458                : en:Chapter 07
    00:28:24.869                : en:Chapter 08
    00:31:25.383                : en:Chapter 09
    00:35:53.901                : en:Chapter 10
    00:38:24.677                : en:Chapter 11
    00:41:14.680                : en:Chapter 12
    00:43:08.210                : en:Chapter 13
    00:46:57.940                : en:Chapter 14
    00:49:43.939                : en:Chapter 15
    00:53:26.161                : en:Chapter 16
    00:55:55.143                : en:Chapter 17
    00:58:02.353                : en:Chapter 18
    01:03:31.849                : en:Chapter 19
    01:05:53.074                : en:Chapter 20
    01:08:38.948                : en:Chapter 21
    01:11:25.864                : en:Chapter 22
    01:13:19.520                : en:Chapter 23
    01:16:16.238                : en:Chapter 24
    01:19:50.452                : en:Chapter 25
    01:23:54.362                : en:Chapter 26
    01:29:02.754                : en:Chapter 27
    01:32:36.759                : en:Chapter 28
    01:37:49.113                : en:Chapter 29
    01:40:33.777                : en:Chapter 30
    01:45:09.136                : en:Chapter 31
    01:49:32.190                : en:Chapter 32
    01:51:29.349                : en:Chapter 33
    01:54:49.090                : en:Chapter 34
    01:58:11.125                : en:Chapter 35
    02:01:55.099                : en:Chapter 36
    02:05:01.285                : en:Chapter 37
    02:06:06.976                : en:Chapter 38
    02:09:18.584                : en:Chapter 39
    02:10:57.266                : en:Chapter 40

  • Peso: 56.2 GiB

Sinopsis

¿Cómo cambia un hombre el mundo? Es una pregunta que obsesiona a Bruce Wayne al igual que el fantasma de sus padres, muertos a tiros ante sus ojos en las calles de Gotham una noche que cambió su vida para siempre. Atormentado por la culpa y la ira, el desilusionado heredero industrial desaparece de Gotham y viaja en secreto por el mundo, buscando los medios de luchar contra la injusticia y utilizar el miedo contra los que se aprovechan de los que tienen miedo. Con la ayuda de su leal mayordomo Alfred, el detective Jim Gordon – uno de los pocos buenos policías de las fuerzas del orden público de Gotham – y Lucius Fox, su aliado en la división de Ciencias Aplicadas de Wayne Enterprises, Bruce Wayne libera a su imponente alter ego: Batman, un justiciero enmascarado que utiliza la fuerza, la inteligencia y un despliegue de artefactos de alta tecnología para combatir las fuerzas siniestras que amenazan con destruir la ciudad.

Ficha técnica

Video trailer de la película

Enlaces de descarga

Rip de Bluray

Descargar Batman Begins (2005) REMUX 4K HDR Latino – CMHDD


Aportes de DPeliculasHDmega la pass es:dpeliculashdmega.org Aportes de CinemaniaHD la pass es:cinemaniahdd.com
Guardado en : Acción , Crimen , Drama

Películas relacionadas

  • Togo (2022) NF WEB-DL 1080p Latino

    Togo (2022) NF WEB-DL 1080p Latino

    2022
    Togo (2022) NF WEB-DL 1080p Latino

    1h 35m 2022

    Descargar Togo (2022) NF WEB-DL 1080p Latino. Los narcos de poca monta están copando las calles de Montevideo...

    Director: Adrián Caetano

    Género: Crimen

    Actores: Tito Prieto

  • El Ultimo Juego (2021) WEB-DL 1080p Latino

    El Ultimo Juego (2021) WEB-DL 1080p Latino

    2021
    El Ultimo Juego (2021) WEB-DL 1080p Latino

    1h 21m 2021

    Descargar El Ultimo Juego (2021) WEB-DL 1080p Latino. 6 extraños se despiertan dentro de una habitación...

    Director: John David Moffat IV

    Género: Drama

    Actores: Yasmin Irvine

  • DC Liga De Supermascotas (2022) HD 1080p Latino

    DC Liga De Supermascotas (2022) HD 1080p Latino

    2022
    DC Liga De Supermascotas (2022) HD 1080p Latino

    1h 45m 2022

    Descargar DC Liga De Supermascotas (2022) HD 1080p Latino. Krypto el Superperro y Superman son amigos...

    Director: Sam Levine

    Género: Acción

    Actores: Yvette Nicole Brown

descargar Batman Begins (2005) REMUX 4K HDR Latino – CMHDD 4K HDR 1080p gratis, Batman Begins (2005) REMUX 4K HDR Latino – CMHDD 4K HDR mega 1 link, Batman Begins (2005) REMUX 4K HDR Latino – CMHDD 4K HDR pelicula completa, descargar Batman Begins (2005) REMUX 4K HDR Latino – CMHDD 4K HDR gratis en mega.

Batman Begins (2005) REMUX 4K HDR Latino – CMHDD pelicula full hd, Batman Begins (2005) REMUX 4K HDR Latino – CMHDD mega latino, Batman Begins (2005) REMUX 4K HDR Latino – CMHDD 4k latino, Batman Begins (2005) REMUX 4K HDR Latino – CMHDD pelicula completa, Batman Begins (2005) REMUX 4K HDR Latino – CMHDD descargar gratis, descargar Batman Begins (2005) REMUX 4K HDR Latino – CMHDD pelicula latino, Batman Begins (2005) REMUX 4K HDR Latino – CMHDD 1 link mega, Batman Begins (2005) REMUX 4K HDR Latino – CMHDD 1 link google drive, Batman Begins (2005) REMUX 4K HDR Latino – CMHDD hd 1080p latino.
Comentarios 0