×

¿Problemas para descargar con Mozilla, EDGE? Deshabilita la opción "Abrir vinculos en una pestaña nueva" tal como lo muestra ésta imagen.

Bates Motel (2014) Temporada 2 NF WEB-DL 1080p Latino

633 vistas

Información de Bates Motel (2014) Temporada 2 NF WEB-DL 1080p Latino

Datos de la película

  • Calidad: WEBDL
  • Audio: Español Latino AC3 5.1 Netflix - Ingles AC3 5.1 Netflix
  • Subtitulos: Español Latino SRT - Ingles SRT
  • Resolución: 1920x1080
  • Formato: MKV
  • Codec: H.264
  • Encoder: cinemaniahdd
  • Mediainfo: Clic para Mostrar Datos Ver
  • Bates Motel S02E01 NF WEB-DL 1080p Latino.mkv
    Format                      : Matroska
    Format version              : Version 4
    File size                   : 1.91 GiB
    Duration                    : 43 min 4 s
    Overall bit rate mode       : Variable
    Overall bit rate            : 6 357 kb/s
    Movie name                  : Bates Motel S02E01 - CinemaniaHDD.Net
    Encoded date                : UTC 2020-01-09 03:10:09
    Writing application         : mkvmerge v38.0.0 ('The Silent Type') 64-bit
    Writing library             : libebml v1.3.9 + libmatroska v1.5.2

    Video
    ID                          : 1
    Format                      : AVC
    Format/Info                 : Advanced Video Codec
    Format profile              : Main@L4
    Format settings             : CABAC / 3 Ref Frames
    Format settings, CABAC      : Yes
    Format settings, ReFrames   : 3 frames
    Codec ID                    : V_MPEG4/ISO/AVC
    Duration                    : 43 min 4 s
    Bit rate mode               : Variable
    Bit rate                    : 5 620 kb/s
    Maximum bit rate            : 8 430 kb/s
    Width                       : 1 920 pixels
    Height                      : 1 080 pixels
    Display aspect ratio        : 16:9
    Frame rate mode             : Constant
    Frame rate                  : 23.976 (24000/1001) FPS
    Color space                 : YUV
    Chroma subsampling          : 4:2:0
    Bit depth                   : 8 bits
    Scan type                   : Progressive
    Bits/(Pixel*Frame)          : 0.113
    Stream size                 : 1.68 GiB (88%)
    Title                       : CinemaniaHDD
    Writing library             : x264 core 118
    Encoding settings           : cabac=1 / ref=3 / deblock=1:0:0 / analyse=0x1:0x111 / me=umh / subme=10 / psy=1 / psy_rd=1.00:0.00 / mixed_ref=1 / me_range=24 / chroma_me=1 / trellis=2 / 8x8dct=0 / cqm=0 / deadzone=21,11 / fast_pskip=1 / chroma_qp_offset=-2 / threads=8 / sliced_threads=0 / nr=0 / decimate=1 / interlaced=0 / bluray_compat=0 / constrained_intra=0 / bframes=2 / b_pyramid=0 / b_adapt=2 / b_bias=0 / direct=3 / weightb=1 / open_gop=0 / weightp=2 / keyint=48 / keyint_min=25 / scenecut=0 / intra_refresh=0 / rc_lookahead=0 / rc=2pass / mbtree=1 / bitrate=5620 / ratetol=1.0 / qcomp=0.50 / qpmin=6 / qpmax=51 / qpstep=4 / cplxblur=20.0 / qblur=0.5 / vbv_maxrate=8430 / vbv_bufsize=11240 / nal_hrd=vbr / ip_ratio=1.40 / aq=1:1.00
    Default                     : Yes
    Forced                      : No

    Audio #1
    ID                          : 2
    Format                      : AC-3
    Format/Info                 : Audio Coding 3
    Commercial name             : Dolby Digital
    Codec ID                    : A_AC3
    Duration                    : 43 min 4 s
    Bit rate mode               : Constant
    Bit rate                    : 384 kb/s
    Channel(s)                  : 6 channels
    Channel layout              : L R C LFE Ls Rs
    Sampling rate               : 48.0 kHz
    Frame rate                  : 31.250 FPS (1536 SPF)
    Bit depth                   : 16 bits
    Compression mode            : Lossy
    Stream size                 : 118 MiB (6%)
    Title                       : Español latino [CinemaniaHDD]
    Language                    : Spanish
    Service kind                : Complete Main
    Default                     : Yes
    Forced                      : No

    Audio #2
    ID                          : 3
    Format                      : AC-3
    Format/Info                 : Audio Coding 3
    Commercial name             : Dolby Digital
    Codec ID                    : A_AC3
    Duration                    : 43 min 4 s
    Bit rate mode               : Constant
    Bit rate                    : 384 kb/s
    Channel(s)                  : 6 channels
    Channel layout              : L R C LFE Ls Rs
    Sampling rate               : 48.0 kHz
    Frame rate                  : 31.250 FPS (1536 SPF)
    Bit depth                   : 16 bits
    Compression mode            : Lossy
    Stream size                 : 118 MiB (6%)
    Title                       : Inglés [CinemaniaHDD]
    Language                    : English
    Service kind                : Complete Main
    Default                     : No
    Forced                      : No

    Text #1
    ID                          : 4
    Format                      : UTF-8
    Codec ID                    : S_TEXT/UTF8
    Codec ID/Info               : UTF-8 Plain Text
    Duration                    : 42 min 21 s
    Bit rate                    : 68 b/s
    Count of elements           : 1139
    Stream size                 : 21.3 KiB (0%)
    Title                       : Inglés [CinemaniaHDD]
    Language                    : English
    Default                     : No
    Forced                      : No

    Text #2
    ID                          : 5
    Format                      : UTF-8
    Codec ID                    : S_TEXT/UTF8
    Codec ID/Info               : UTF-8 Plain Text
    Duration                    : 42 min 19 s
    Bit rate                    : 54 b/s
    Count of elements           : 447
    Stream size                 : 17.0 KiB (0%)
    Title                       : Español latino [CinemaniaHDD]
    Language                    : Spanish
    Default                     : No
    Forced                      : No

     

  • Peso: 1.91 GiB C/U

Sinopsis

Serie de TV (2013-2017). 5 temporadas. 50 episodios. Precuela contemporánea de la película «Psicosis», que nos hace un retrato íntimo de cómo se desarrolla la psique de Norman Bates durante sus años de adolescencia. Los fans descubrirán su historia de trasfondo oscuro y retorcido y conocerán de primera mano cuán profundamente intrincada es la relación con su madre, Norma, y cómo ello ayudó a forjar a uno de los asesinos en serie más famoso de todos los tiempos

Ficha técnica

Video trailer de la película

Enlaces de descarga

Rip de Bluray

Descargar Bates Motel (2014) Temporada 2 NF WEB-DL 1080p Latino




Aportes de DPeliculasHDmega la pass es:dpeliculashdmega.org Aportes de CinemaniaHD la pass es:cinemaniahdd.com
Guardado en : Crimen , Drama , Misterio , Netflix , Series

Películas relacionadas

  • Zola (2020) HD 1080p Latino

    Zola (2020) HD 1080p Latino

    2020
    Zola (2020) HD 1080p Latino

    1h 26m 2020

    Descargar Zola (2020) HD 1080p Latino. Una camarera accede a acompañar a una bailarina exótica, su...

    Director: Sheri Davani

    Género: Comedia

    Actores: Ts Madison

  • Zola (2020) PLACEBO Full HD 1080p Latino

    Zola (2020) PLACEBO Full HD 1080p Latino

    2020
    Zola (2020) PLACEBO Full HD 1080p Latino

    1h 26m 2020

    Descargar Zola (2020) PLACEBO Full HD 1080p Latino. Una camarera accede a acompañar a una bailarina...

    Director: Sheri Davani

    Género: Comedia

    Actores: Ts Madison

  • Zola (2020) REMUX 1080p Latino

    Zola (2020) REMUX 1080p Latino

    2020
    Zola (2020) REMUX 1080p Latino

    1h 26m 2020

    Descargar Zola (2020) REMUX 1080p Latino. Una camarera accede a acompañar a una bailarina exótica,...

    Director: Sheri Davani

    Género: Comedia

    Actores: Ts Madison

descargar Bates Motel (2014) Temporada 2 NF WEB-DL 1080p Latino WEBDL 1080p gratis, Bates Motel (2014) Temporada 2 NF WEB-DL 1080p Latino WEBDL mega 1 link, Bates Motel (2014) Temporada 2 NF WEB-DL 1080p Latino WEBDL serie completa, descargar Bates Motel (2014) Temporada 2 NF WEB-DL 1080p Latino WEBDL gratis en mega.

Bates Motel (2014) Temporada 2 NF WEB-DL 1080p Latino pelicula full hd, Bates Motel (2014) Temporada 2 NF WEB-DL 1080p Latino mega latino, Bates Motel (2014) Temporada 2 NF WEB-DL 1080p Latino 4k latino, Bates Motel (2014) Temporada 2 NF WEB-DL 1080p Latino pelicula completa, Bates Motel (2014) Temporada 2 NF WEB-DL 1080p Latino descargar gratis, descargar Bates Motel (2014) Temporada 2 NF WEB-DL 1080p Latino pelicula latino, Bates Motel (2014) Temporada 2 NF WEB-DL 1080p Latino 1 link mega, Bates Motel (2014) Temporada 2 NF WEB-DL 1080p Latino 1 link google drive, Bates Motel (2014) Temporada 2 NF WEB-DL 1080p Latino hd 1080p latino.
Comentarios 0