×

¿Problemas para descargar con Mozilla, EDGE? Deshabilita la opción "Abrir vinculos en una pestaña nueva" tal como lo muestra ésta imagen.

Bastardos sin gloria (2009) 1080p Latino

1.246 vistas

Información de Bastardos sin gloria (2009) 1080p Latino

poster inglourious

Datos de la película

  • Calidad: 1080p
  • Audio: Español Latino AC3 5.1 BLURAY - Ingles AC3 5.1 BLURAY
  • Subtitulos: Español Latino SRT- FORZADOS SRT
  • Resolución: 1920X800
  • Formato: MKV
  • Codec: H.264
  • Encoder: cinemaniahdd
  • Mediainfo: Clic para Mostrar Datos Ver
  • Bastardos sin gloria (2009) 1080p Latino.mkv
    Format                      : Matroska
    Format version              : Version 4
    File size                   : 5.28 GiB
    Duration                    : 2 h 32 min
    Overall bit rate            : 4 940 kb/s
    Movie name                  : Bastardos sin gloria (2009) - CinemaniaHDD.Net
    Encoded date                : UTC 2019-09-11 19:44:49
    Writing application         : mkvmerge v35.0.0 ('All The Love In The World') 64-bit
    Writing library             : libebml v1.3.9 + libmatroska v1.5.2

    Video
    ID                          : 1
    Format                      : AVC
    Format/Info                 : Advanced Video Codec
    Format profile              : Main@L4
    Format settings             : CABAC / 4 Ref Frames
    Format settings, CABAC      : Yes
    Format settings, ReFrames   : 4 frames
    Codec ID                    : V_MPEG4/ISO/AVC
    Duration                    : 2 h 32 min
    Bit rate                    : 3 500 kb/s
    Width                       : 1 920 pixels
    Height                      : 800 pixels
    Display aspect ratio        : 2.40:1
    Frame rate mode             : Constant
    Frame rate                  : 23.976 (24000/1001) FPS
    Color space                 : YUV
    Chroma subsampling          : 4:2:0
    Bit depth                   : 8 bits
    Scan type                   : Progressive
    Bits/(Pixel*Frame)          : 0.095
    Stream size                 : 3.70 GiB (70%)
    Writing library             : x264 core 157 r2935 545de2f
    Encoding settings           : cabac=1 / ref=3 / deblock=1:0:0 / analyse=0x1:0x111 / me=hex / subme=7 / psy=1 / psy_rd=1.00:0.00 / mixed_ref=1 / me_range=16 / chroma_me=1 / trellis=1 / 8x8dct=0 / cqm=0 / deadzone=21,11 / fast_pskip=1 / chroma_qp_offset=-2 / threads=25 / lookahead_threads=4 / sliced_threads=0 / nr=0 / decimate=1 / interlaced=0 / bluray_compat=0 / constrained_intra=0 / bframes=3 / b_pyramid=2 / b_adapt=1 / b_bias=0 / direct=1 / weightb=1 / open_gop=0 / weightp=2 / keyint=240 / keyint_min=24 / scenecut=40 / intra_refresh=0 / rc_lookahead=40 / rc=abr / mbtree=1 / bitrate=3500 / ratetol=1.0 / qcomp=0.60 / qpmin=0 / qpmax=69 / qpstep=4 / vbv_maxrate=20000 / vbv_bufsize=25000 / nal_hrd=none / filler=0 / ip_ratio=1.40 / aq=1:1.00
    Default                     : Yes
    Forced                      : No
    Color range                 : Limited
    Color primaries             : BT.709
    Transfer characteristics    : BT.709
    Matrix coefficients         : BT.709

    Audio #1
    ID                          : 2
    Format                      : DTS
    Format/Info                 : Digital Theater Systems
    Codec ID                    : A_DTS
    Duration                    : 2 h 32 min
    Bit rate mode               : Constant
    Bit rate                    : 768 kb/s
    Channel(s)                  : 6 channels
    Channel layout              : C L R Ls Rs LFE
    Sampling rate               : 48.0 kHz
    Frame rate                  : 93.750 FPS (512 SPF)
    Bit depth                   : 24 bits
    Compression mode            : Lossy
    Delay relative to video     : 1 s 11 ms
    Stream size                 : 840 MiB (16%)
    Title                       : Español latino [CinemaniaHDD]
    Language                    : Spanish
    Default                     : Yes
    Forced                      : No

    Audio #2
    ID                          : 3
    Format                      : AC-3
    Format/Info                 : Audio Coding 3
    Commercial name             : Dolby Digital
    Codec ID                    : A_AC3
    Duration                    : 2 h 32 min
    Bit rate mode               : Constant
    Bit rate                    : 256 kb/s
    Channel(s)                  : 2 channels
    Channel layout              : L R
    Sampling rate               : 48.0 kHz
    Frame rate                  : 31.250 FPS (1536 SPF)
    Bit depth                   : 16 bits
    Compression mode            : Lossy
    Delay relative to video     : -5 ms
    Stream size                 : 280 MiB (5%)
    Title                       : 2.0 [CinemaniaHDD]
    Language                    : Spanish
    Service kind                : Complete Main
    Default                     : No
    Forced                      : No

    Audio #3
    ID                          : 4
    Format                      : AC-3
    Format/Info                 : Audio Coding 3
    Commercial name             : Dolby Digital
    Codec ID                    : A_AC3
    Duration                    : 2 h 32 min
    Bit rate mode               : Constant
    Bit rate                    : 448 kb/s
    Channel(s)                  : 6 channels
    Channel layout              : L R C LFE Ls Rs
    Sampling rate               : 48.0 kHz
    Frame rate                  : 31.250 FPS (1536 SPF)
    Bit depth                   : 16 bits
    Compression mode            : Lossy
    Delay relative to video     : -5 ms
    Stream size                 : 490 MiB (9%)
    Title                       : Surround
    Language                    : English
    Service kind                : Complete Main
    Default                     : No
    Forced                      : No

    Text #1
    ID                          : 5
    Format                      : UTF-8
    Codec ID                    : S_TEXT/UTF8
    Codec ID/Info               : UTF-8 Plain Text
    Duration                    : 2 h 23 min
    Bit rate                    : 29 b/s
    Count of elements           : 953
    Stream size                 : 30.6 KiB (0%)
    Title                       : Forzados [CinemaniaHDD]
    Language                    : Spanish
    Default                     : Yes
    Forced                      : Yes

    Text #2
    ID                          : 6
    Format                      : UTF-8
    Codec ID                    : S_TEXT/UTF8
    Codec ID/Info               : UTF-8 Plain Text
    Duration                    : 2 h 27 min
    Bit rate                    : 53 b/s
    Count of elements           : 1802
    Stream size                 : 57.8 KiB (0%)
    Title                       : Español latino [CinemaniaHDD]
    Language                    : Spanish
    Default                     : No
    Forced                      : No

    Menu
    00:00:00.000                : en:Main Titles
    00:01:50.610                : en:Chapter One: Once Upon a Time in Nazi-Occupied France
    00:07:06.384                : en:If a Rat Were to Walk In
    00:21:20.821                : en:Chapter Two: Inglourious Basterds
    00:24:12.826                : en:Nein
    00:28:15.902                : en:Hugo Stiglitz
    00:30:18.942                : en:The Bear Jew
    00:37:57.108                : en:Chapter Three: German Night in Paris
    00:41:47.922                : en:Fredrick Zoller
    00:48:28.405                : en:Lunch with Goebbels
    00:53:53.563                : en:Apple Strudel & Creme Fraiche
    01:00:50.438                : en:A Film Just for the Nazis
    01:04:05.341                : en:Chapter Four: Operation Kino
    01:09:24.702                : en:Fightin' in a Basement
    01:12:17.166                : en:La Louisiane
    01:19:25.927                : en:Say Auf Wiedersehen to Your Nazi Balls
    01:32:54.777                : en:A Mexican Standoff
    01:37:02.233                : en:It's Called Suspicious
    01:43:51.475                : en:Detective Landa
    01:45:38.040                : en:Chapter Five: Revenge of the Giant Face
    01:50:30.624                : en:Italian Escorts
    01:57:35.089                : en:If the Show Fits
    02:03:38.452                : en:That's A Bingo
    02:10:30.072                : en:Nation's Pride
    02:16:40.859                : en:Fredrick Calls on Shosanna
    02:23:10.748                : en:This Is the Face of Jewish Vengeance
    02:25:47.280                : en:Aldo's Masterpiece
    02:29:30.962                : en:End Titles

  • Peso: 5.28 GiB

Sinopsis

Descargar Bastardos sin gloria (2009) 1080p Latino, Segunda Guerra Mundial. Durante la ocupación de Francia por los alemanes, Shosanna Dreyfus presencia la ejecución de su familia por orden del coronel nazi Hans Landa. Ella consigue huir a París, donde adopta una nueva identidad como propietaria de un cine. En otro lugar de Europa, el teniente Aldo Raine adiestra a un grupo de soldados judíos «Los bastardos» para atacar objetivos concretos. Los hombres de Raine y una actriz alemana, que trabaja para los aliados, deben llevar a cabo una misión que hará caer a los jefes del Tercer Reich. El destino quiere que todos se encuentren bajo la marquesina de un cine donde Shosanna espera para vengarse.

Ficha técnica

Video trailer de la película

Enlaces de descarga

Rip de Bluray

Descargar Bastardos sin gloria (2009) 1080p Latino




Aportes de DPeliculasHDmega la pass es:dpeliculashdmega.org Aportes de CinemaniaHD la pass es:cinemaniahdd.com
Guardado en : Acción , Bélica , Drama , HD 1080p , Suspenso

Películas relacionadas

  • Zola (2020) HD 1080p Latino

    Zola (2020) HD 1080p Latino

    2020
    Zola (2020) HD 1080p Latino

    1h 26m 2020

    Descargar Zola (2020) HD 1080p Latino. Una camarera accede a acompañar a una bailarina exótica, su...

    Director: Sheri Davani

    Género: Comedia

    Actores: Ts Madison

  • Hocus Pocus: Abracadabra (1993) 1080p Latino

    Hocus Pocus: Abracadabra (1993) 1080p Latino

    1993
    Hocus Pocus: Abracadabra (1993) 1080p Latino

    1h 36m 1993

    Descargar Hocus Pocus: Abracadabra (1993) 1080p Latino. Tres brujas del siglo XII son invocadas durante...

    Director: Kenny Ortega

    Género: Comedia

    Actores: Vinessa Shaw

descargar Bastardos sin gloria (2009) 1080p Latino 1080p 1080p gratis, Bastardos sin gloria (2009) 1080p Latino 1080p mega 1 link, Bastardos sin gloria (2009) 1080p Latino 1080p pelicula completa, descargar Bastardos sin gloria (2009) 1080p Latino 1080p gratis en mega.

Bastardos sin gloria (2009) 1080p Latino pelicula full hd, Bastardos sin gloria (2009) 1080p Latino mega latino, Bastardos sin gloria (2009) 1080p Latino 4k latino, Bastardos sin gloria (2009) 1080p Latino pelicula completa, Bastardos sin gloria (2009) 1080p Latino descargar gratis, descargar Bastardos sin gloria (2009) 1080p Latino pelicula latino, Bastardos sin gloria (2009) 1080p Latino 1 link mega, Bastardos sin gloria (2009) 1080p Latino 1 link google drive, Bastardos sin gloria (2009) 1080p Latino hd 1080p latino.
Comentarios 0