×

¿Problemas para descargar con Mozilla, EDGE? Deshabilita la opción "Abrir vinculos en una pestaña nueva" tal como lo muestra ésta imagen.

Basic Instinct (1992) REMUX 4K HDR Latino – CMHDD

341 vistas

Información de Basic Instinct (1992) REMUX 4K HDR Latino – CMHDD

Datos de la película

  • Calidad: 4K HDR
  • Audio: Español Latino AC3 2.0 DVD - Ingles DTS 5.1 BLURAY
  • Subtitulos: Español Latino PGS
  • Resolución: 3840x2160p
  • Formato: MKV
  • Codec: H.264
  • Encoder: Dracarys
  • Mediainfo: Clic para Mostrar Datos Ver
  • Format                      : Matroska
    Format version              : Version 4
    File size                   : 53.6 GiB
    Duration                    : 2 h 8 min
    Overall bit rate mode       : Variable
    Overall bit rate            : 59.8 Mb/s
    Movie name                  : Basic Instinct (1992) REMUX  4K HDR Latino - CMHDD
    Encoded date                : UTC 2021-06-26 22:40:12
    Writing application         : mkvmerge v56.1.0 ('My Friend') 64-bit
    Writing library             : libebml v1.4.2 + libmatroska v1.6.4
    Cover                       : Yes
    Attachments                 : cover.jpg

    Video
    ID                          : 1
    ID in the original source m : 4113 (0x1011)
    Format                      : HEVC
    Format/Info                 : High Efficiency Video Coding
    Format profile              : Main 10@L5.1@High
    HDR format                  : SMPTE ST 2086, HDR10 compatible
    Codec ID                    : V_MPEGH/ISO/HEVC
    Duration                    : 2 h 8 min
    Bit rate                    : 56.0 Mb/s
    Width                       : 3 840 pixels
    Height                      : 2 160 pixels
    Display aspect ratio        : 16:9
    Frame rate mode             : Constant
    Frame rate                  : 24.000 FPS
    Color space                 : YUV
    Chroma subsampling          : 4:2:0 (Type 2)
    Bit depth                   : 10 bits
    Bits/(Pixel*Frame)          : 0.281
    Stream size                 : 50.2 GiB (94%)
    Default                     : Yes
    Forced                      : No
    Color range                 : Limited
    Color primaries             : BT.2020
    Transfer characteristics    : PQ
    Matrix coefficients         : BT.2020 non-constant
    Mastering display color pri : BT.2020
    Mastering display luminance : min: 0.0001 cd/m2, max: 1000 cd/m2
    Original source medium      : Blu-ray

    Audio #1
    ID                          : 2
    Format                      : AC-3
    Format/Info                 : Audio Coding 3
    Commercial name             : Dolby Digital
    Codec ID                    : A_AC3
    Duration                    : 2 h 8 min
    Bit rate mode               : Constant
    Bit rate                    : 256 kb/s
    Channel(s)                  : 2 channels
    Channel layout              : L R
    Sampling rate               : 48.0 kHz
    Frame rate                  : 31.250 FPS (1536 SPF)
    Compression mode            : Lossy
    Delay relative to video     : 2 s 300 ms
    Stream size                 : 235 MiB (0%)
    Language                    : Spanish
    Service kind                : Complete Main
    Default                     : Yes
    Forced                      : No

    Audio #2
    ID                          : 3
    ID in the original source m : 4352 (0x1100)
    Format                      : DTS XLL
    Format/Info                 : Digital Theater Systems
    Commercial name             : DTS-HD Master Audio
    Codec ID                    : A_DTS
    Duration                    : 2 h 8 min
    Bit rate mode               : Variable
    Bit rate                    : 3 171 kb/s
    Channel(s)                  : 6 channels
    Channel layout              : C L R Ls Rs LFE
    Sampling rate               : 48.0 kHz
    Frame rate                  : 93.750 FPS (512 SPF)
    Bit depth                   : 24 bits
    Compression mode            : Lossless
    Stream size                 : 2.84 GiB (5%)
    Language                    : English
    Default                     : No
    Forced                      : No
    Original source medium      : Blu-ray

    Audio #3
    ID                          : 4
    ID in the original source m : 4356 (0x1104)
    Format                      : AC-3
    Format/Info                 : Audio Coding 3
    Commercial name             : Dolby Digital
    Codec ID                    : A_AC3
    Duration                    : 2 h 8 min
    Bit rate mode               : Constant
    Bit rate                    : 192 kb/s
    Channel(s)                  : 2 channels
    Channel layout              : L R
    Sampling rate               : 48.0 kHz
    Frame rate                  : 31.250 FPS (1536 SPF)
    Compression mode            : Lossy
    Stream size                 : 176 MiB (0%)
    Language                    : English
    Service kind                : Complete Main
    Default                     : No
    Forced                      : No
    Original source medium      : Blu-ray

    Audio #4
    ID                          : 5
    ID in the original source m : 4357 (0x1105)
    Format                      : AC-3
    Format/Info                 : Audio Coding 3
    Commercial name             : Dolby Digital
    Codec ID                    : A_AC3
    Duration                    : 2 h 8 min
    Bit rate mode               : Constant
    Bit rate                    : 192 kb/s
    Channel(s)                  : 2 channels
    Channel layout              : L R
    Sampling rate               : 48.0 kHz
    Frame rate                  : 31.250 FPS (1536 SPF)
    Compression mode            : Lossy
    Stream size                 : 176 MiB (0%)
    Language                    : English
    Service kind                : Complete Main
    Default                     : No
    Forced                      : No
    Original source medium      : Blu-ray

    Text
    ID                          : 6
    Format                      : UTF-8
    Codec ID                    : S_TEXT/UTF8
    Codec ID/Info               : UTF-8 Plain Text
    Duration                    : 2 h 1 min
    Bit rate                    : 50 b/s
    Count of elements           : 1194
    Stream size                 : 44.8 KiB (0%)
    Language                    : Spanish
    Default                     : No
    Forced                      : No

    Menu
    00:00:00.000                : Chapter 01
    00:07:21.708                : Chapter 02
    00:21:01.041                : Chapter 03
    00:32:18.000                : Chapter 04
    00:40:02.500                : Chapter 05
    00:51:31.041                : Chapter 06
    01:02:05.125                : Chapter 07
    01:08:07.291                : Chapter 08
    01:20:41.375                : Chapter 09
    01:30:34.500                : Chapter 10
    01:46:00.708                : Chapter 11
    01:51:07.125                : Chapter 12

  • Peso: 53.6 GiB

Sinopsis

Un antiguo cantante de rock ha sido brutalmente asesinado. La última vez que se le vio estaba acompañado por su novia. En la comisaría, en el departamento de Asuntos Internos, Nick Curran recibe el encargo de vigilar a Catherine Tromell, la supuesta novia asesina.

Ficha técnica

Video trailer de la película

Enlaces de descarga

Rip de Bluray

Descargar Basic Instinct (1992) REMUX 4K HDR Latino – CMHDD


Aportes de DPeliculasHDmega la pass es:dpeliculashdmega.org Aportes de CinemaniaHD la pass es:cinemaniahdd.com
Guardado en : Misterio , Suspenso

Películas relacionadas

  • Juego de espías (2001) 1080p Latino

    Juego de espías (2001) 1080p Latino

    2001
    Juego de espías (2001) 1080p Latino

    2h 6m 2001

    Descargar Juego de espías (2001) 1080p Latino. Corre el año 1991, y al veterano agente de la CIA Nathan...

    Director: Tony Scott

    Género: Acción

    Actores: Zsolt Zágoni

  • Juego de espías (2001) Full HD 1080p Latino

    Juego de espías (2001) Full HD 1080p Latino

    2001
    Juego de espías (2001) Full HD 1080p Latino

    2h 6m 2001

    Descargar Juego de espías (2001) Full HD 1080p Latino. Corre el año 1991, y al veterano agente de la...

    Director: Tony Scott

    Género: Acción

    Actores: Zsolt Zágoni

  • Juego de espías (2001) REMUX 1080p Latino

    Juego de espías (2001) REMUX 1080p Latino

    2001
    Juego de espías (2001) REMUX 1080p Latino

    1h 55m 2001

    Descargar Juego de espías (2001) REMUX 1080p Latino. El día de su jubilación, el veterano agente de...

    Director: Tony Scott

    Género: Acción

    Actores: Zsolt Zágoni

  • Transfusion (2023) WEB-DL 4K UHD HDR Latino

    Transfusion (2023) WEB-DL 4K UHD HDR Latino

    2023
    Transfusion (2023) WEB-DL 4K UHD HDR Latino

    1h 45m 2023

    Descargar Transfusion (2023) WEB-DL 4K UHD HDR Latino. Un antiguo agente de las Fuerzas Especiales se...

    Director: Matt Nable

    Género: 4K HDR

    Actores: Trystan Go

  • Transfusion (2023) WEB-DL 1080p Latino

    Transfusion (2023) WEB-DL 1080p Latino

    2023
    Transfusion (2023) WEB-DL 1080p Latino

    1h 45m 2023

    Descargar Transfusion (2023) WEB-DL 1080p Latino. Un antiguo agente de las Fuerzas Especiales se ve empujado...

    Director: Matt Nable

    Género: Crimen

    Actores: Trystan Go

descargar Basic Instinct (1992) REMUX 4K HDR Latino – CMHDD 4K HDR 1080p gratis, Basic Instinct (1992) REMUX 4K HDR Latino – CMHDD 4K HDR mega 1 link, Basic Instinct (1992) REMUX 4K HDR Latino – CMHDD 4K HDR pelicula completa, descargar Basic Instinct (1992) REMUX 4K HDR Latino – CMHDD 4K HDR gratis en mega.

Basic Instinct (1992) REMUX 4K HDR Latino – CMHDD pelicula full hd, Basic Instinct (1992) REMUX 4K HDR Latino – CMHDD mega latino, Basic Instinct (1992) REMUX 4K HDR Latino – CMHDD 4k latino, Basic Instinct (1992) REMUX 4K HDR Latino – CMHDD pelicula completa, Basic Instinct (1992) REMUX 4K HDR Latino – CMHDD descargar gratis, descargar Basic Instinct (1992) REMUX 4K HDR Latino – CMHDD pelicula latino, Basic Instinct (1992) REMUX 4K HDR Latino – CMHDD 1 link mega, Basic Instinct (1992) REMUX 4K HDR Latino – CMHDD 1 link google drive, Basic Instinct (1992) REMUX 4K HDR Latino – CMHDD hd 1080p latino.
Comentarios 0