×

¿Problemas para descargar con Mozilla, EDGE? Deshabilita la opción "Abrir vinculos en una pestaña nueva" tal como lo muestra ésta imagen.

Barbaro (2022) WEB-DL 4K UHD HDR Latino

57 vistas

Información de Barbaro (2022) WEB-DL 4K UHD HDR Latino

Datos de la película

  • Calidad: WEBDL
  • Audio: Español Latino AC3 5.1 WEB-DL - Ingles AC3 5.1 WEB-DL
  • Subtitulos: Español Latino SRT- FORZADOS SRT
  • Resolución: 3840x2160p
  • Formato: MKV
  • Codec: HEVC
  • Encoder: Melkor
  • Mediainfo: Clic para Mostrar Datos Ver
  • Barbaro (2022) WEB UHD HDR Latino.mkv
    Format                      : Matroska
    Format version              : Version 4
    File size                   : 10.8 GiB
    Duration                    : 1 h 42 min
    Overall bit rate            : 15.1 Mb/s
    Movie name                  : Barbarian (2022) CinemaniaHDD.Net
    Encoded date                : UTC 2022-10-26 19:58:38
    Writing application         : mkvmerge v56.1.0 ('My Friend') 64-bit
    Writing library             : libebml v1.4.2 + libmatroska v1.6.4
    Attachments                 : CINEMANIAHD.png

    Video
    ID                          : 1
    Format                      : HEVC
    Format/Info                 : High Efficiency Video Coding
    Format profile              : Main 10@L5@High
    HDR format                  : SMPTE ST 2086, HDR10 compatible
    Codec ID                    : V_MPEGH/ISO/HEVC
    Duration                    : 1 h 42 min
    Bit rate                    : 13.7 Mb/s
    Width                       : 3 840 pixels
    Height                      : 2 160 pixels
    Display aspect ratio        : 16:9
    Frame rate mode             : Constant
    Frame rate                  : 23.976 (24000/1001) FPS
    Color space                 : YUV
    Chroma subsampling          : 4:2:0
    Bit depth                   : 10 bits
    Bits/(Pixel*Frame)          : 0.069
    Stream size                 : 9.85 GiB (91%)
    Title                       : Web 2160p HDR [CinemaniaHDD]
    Default                     : Yes
    Forced                      : No
    Color range                 : Limited
    Color primaries             : BT.2020
    Transfer characteristics    : PQ
    Matrix coefficients         : BT.2020 non-constant
    Mastering display color pri : BT.2020
    Mastering display luminance : min: 0.0001 cd/m2, max: 1000 cd/m2

    Audio #1
    ID                          : 2
    Format                      : AC-3
    Format/Info                 : Audio Coding 3
    Commercial name             : Dolby Digital
    Codec ID                    : A_AC3
    Duration                    : 1 h 42 min
    Bit rate mode               : Constant
    Bit rate                    : 448 kb/s
    Channel(s)                  : 6 channels
    Channel layout              : L R C LFE Ls Rs
    Sampling rate               : 48.0 kHz
    Frame rate                  : 31.250 FPS (1536 SPF)
    Compression mode            : Lossy
    Stream size                 : 329 MiB (3%)
    Title                       : Español Latino AC3 [CinemaniaHDD]
    Language                    : Spanish
    Service kind                : Complete Main
    Default                     : Yes
    Forced                      : Yes

    Audio #2
    ID                          : 3
    Format                      : E-AC-3
    Format/Info                 : Enhanced AC-3
    Commercial name             : Dolby Digital Plus
    Codec ID                    : A_EAC3
    Duration                    : 1 h 42 min
    Bit rate mode               : Constant
    Bit rate                    : 256 kb/s
    Channel(s)                  : 6 channels
    Channel layout              : L R C LFE Ls Rs
    Sampling rate               : 48.0 kHz
    Frame rate                  : 31.250 FPS (1536 SPF)
    Compression mode            : Lossy
    Stream size                 : 188 MiB (2%)
    Title                       : Español Latino EAC3 [CinemaniaHDD]
    Language                    : Spanish
    Service kind                : Complete Main
    Default                     : No
    Forced                      : No

    Audio #3
    ID                          : 4
    Format                      : E-AC-3
    Format/Info                 : Enhanced AC-3
    Commercial name             : Dolby Digital Plus
    Codec ID                    : A_EAC3
    Duration                    : 1 h 42 min
    Bit rate mode               : Constant
    Bit rate                    : 640 kb/s
    Channel(s)                  : 6 channels
    Channel layout              : L R C LFE Ls Rs
    Sampling rate               : 48.0 kHz
    Frame rate                  : 31.250 FPS (1536 SPF)
    Compression mode            : Lossy
    Delay relative to video     : 12 ms
    Stream size                 : 470 MiB (4%)
    Title                       : Ingles [CinemaniaHDD]
    Language                    : English
    Service kind                : Complete Main
    Default                     : No
    Forced                      : No

    Text #1
    ID                          : 5
    Format                      : UTF-8
    Codec ID                    : S_TEXT/UTF8
    Codec ID/Info               : UTF-8 Plain Text
    Duration                    : 1 h 19 min
    Bit rate                    : 0 b/s
    Count of elements           : 3
    Stream size                 : 85.0 Bytes (0%)
    Title                       : Forzados-SRT [CinemaniaHDD]
    Language                    : Spanish
    Default                     : Yes
    Forced                      : Yes

    Text #2
    ID                          : 6
    Format                      : UTF-8
    Codec ID                    : S_TEXT/UTF8
    Codec ID/Info               : UTF-8 Plain Text
    Duration                    : 1 h 40 min
    Bit rate                    : 48 b/s
    Count of elements           : 1191
    Stream size                 : 36.0 KiB (0%)
    Title                       : Español-SRT [CinemaniaHDD]
    Language                    : Spanish
    Default                     : No
    Forced                      : No

    Text #3
    ID                          : 7
    Format                      : UTF-8
    Codec ID                    : S_TEXT/UTF8
    Codec ID/Info               : UTF-8 Plain Text
    Duration                    : 1 h 35 min
    Bit rate                    : 52 b/s
    Count of elements           : 1260
    Stream size                 : 36.6 KiB (0%)
    Title                       : Ingles-SRT [CinemaniaHDD]
    Language                    : English
    Default                     : No
    Forced                      : No

    Menu
    00:00:00.000                : Chapter 1
    00:06:03.000                : Chapter 2
    00:11:23.000                : Chapter 3
    00:18:24.000                : Chapter 4
    00:22:35.000                : Chapter 5
    00:26:19.000                : Chapter 6
    00:30:08.000                : Chapter 7
    00:37:06.000                : Chapter 8
    00:42:46.000                : Chapter 9
    00:46:27.000                : Chapter 10
    00:50:36.000                : Chapter 11
    00:54:14.000                : Chapter 12
    00:56:35.000                : Chapter 13
    01:01:48.000                : Chapter 14
    01:06:07.000                : Chapter 15
    01:12:14.000                : Chapter 16
    01:18:40.000                : Chapter 17
    01:25:17.000                : Chapter 18
    01:29:16.000                : Chapter 19
    01:37:02.000                : Chapter 20

  • Peso: 10.8 GiB

Sinopsis

Descargar Barbaro (2022) WEB-DL 4K UHD HDR Latino. Una joven que viaja a Detroit para una entrevista de trabajo alquila una casa para pasar la noche. Pero cuando llega a altas horas de la noche, descubre que la casa está doblemente reservada y que un hombre extraño ya se está quedando allí. En contra de su buen juicio, decide pasar la noche allí, pero pronto descubre que hay mucho más que temer que un invitado inesperado.

Ficha técnica

Video trailer de la película

Enlaces de descarga

Rip de Bluray

Descargar Barbaro (2022) WEB-DL 4K UHD HDR Latino




Aportes de DPeliculasHDmega la pass es:dpeliculashdmega.org Aportes de CinemaniaHD la pass es:cinemaniahdd.com
Guardado en : 4K HDR , 4K UHD , Misterio , Suspenso , Terror

Películas relacionadas

descargar Barbaro (2022) WEB-DL 4K UHD HDR Latino WEBDL 1080p gratis, Barbaro (2022) WEB-DL 4K UHD HDR Latino WEBDL mega 1 link, Barbaro (2022) WEB-DL 4K UHD HDR Latino WEBDL pelicula completa, descargar Barbaro (2022) WEB-DL 4K UHD HDR Latino WEBDL gratis en mega.

Barbaro (2022) WEB-DL 4K UHD HDR Latino pelicula full hd, Barbaro (2022) WEB-DL 4K UHD HDR Latino mega latino, Barbaro (2022) WEB-DL 4K UHD HDR Latino 4k latino, Barbaro (2022) WEB-DL 4K UHD HDR Latino pelicula completa, Barbaro (2022) WEB-DL 4K UHD HDR Latino descargar gratis, descargar Barbaro (2022) WEB-DL 4K UHD HDR Latino pelicula latino, Barbaro (2022) WEB-DL 4K UHD HDR Latino 1 link mega, Barbaro (2022) WEB-DL 4K UHD HDR Latino 1 link google drive, Barbaro (2022) WEB-DL 4K UHD HDR Latino hd 1080p latino.
Comentarios 0