×

¿Problemas para descargar con Mozilla, EDGE? Deshabilita la opción "Abrir vinculos en una pestaña nueva" tal como lo muestra ésta imagen.

Bang Bang Baby (2022) Primera Temporada AMZN WEB-DL 1080p Latino

493 vistas

Información de Bang Bang Baby (2022) Primera Temporada AMZN WEB-DL 1080p Latino

Datos de la película

  • Calidad: 1080p
  • Audio: Español Latino AC3 5.1 WEB-DL - Ingles AC3 5.1 WEB-DL
  • Subtitulos: Español Latino SRT- FORZADOS SRT
  • Resolución: 1920x1080
  • Formato: MKV
  • Codec: H.264
  • Encoder: cinemaniahdd
  • Mediainfo: Clic para Mostrar Datos Ver
  • Bang Bang Baby T01E01 AMZN WEB-DL 1080p Latino [CNMNHDD].mkv
    Format                      : Matroska
    Format version              : Version 4
    File size                   : 2.26 GiB
    Duration                    : 52 min 8 s
    Overall bit rate            : 6 212 kb/s
    Movie name                  : Bang Bang Baby S01E01 - Death isnt funny [1080p] - CinemaniaHDD.Net
    Encoded date                : UTC 2022-05-19 11:44:40
    Writing application         : mkvmerge v56.1.0 ('My Friend') 64-bit
    Writing library             : libebml v1.4.2 + libmatroska v1.6.4

    Video
    ID                          : 1
    Format                      : AVC
    Format/Info                 : Advanced Video Codec
    Format profile              : High@L4
    Format settings             : CABAC / 4 Ref Frames
    Format settings, CABAC      : Yes
    Format settings, Reference  : 4 frames
    Codec ID                    : V_MPEG4/ISO/AVC
    Duration                    : 52 min 8 s
    Bit rate mode               : Constant
    Bit rate                    : 4 289 kb/s
    Nominal bit rate            : 10 000 kb/s
    Width                       : 1 920 pixels
    Height                      : 1 080 pixels
    Display aspect ratio        : 16:9
    Frame rate mode             : Constant
    Frame rate                  : 25.000 FPS
    Color space                 : YUV
    Chroma subsampling          : 4:2:0
    Bit depth                   : 8 bits
    Scan type                   : Progressive
    Bits/(Pixel*Frame)          : 0.083
    Stream size                 : 1.56 GiB (69%)
    Title                       : CinemaniaHDD
    Default                     : Yes
    Forced                      : No
    Color range                 : Limited
    Color primaries             : BT.709
    Transfer characteristics    : BT.709
    Matrix coefficients         : BT.709

    Audio #1
    ID                          : 2
    Format                      : AC-3
    Format/Info                 : Audio Coding 3
    Commercial name             : Dolby Digital
    Codec ID                    : A_AC3
    Duration                    : 52 min 8 s
    Bit rate mode               : Constant
    Bit rate                    : 640 kb/s
    Channel(s)                  : 6 channels
    Channel layout              : L R C LFE Ls Rs
    Sampling rate               : 48.0 kHz
    Frame rate                  : 31.250 FPS (1536 SPF)
    Compression mode            : Lossy
    Stream size                 : 239 MiB (10%)
    Title                       : Español latino [CinemaniaHDD]
    Language                    : Spanish
    Service kind                : Complete Main
    Default                     : Yes
    Forced                      : No

    Audio #2
    ID                          : 3
    Format                      : E-AC-3
    Format/Info                 : Enhanced AC-3
    Commercial name             : Dolby Digital Plus
    Codec ID                    : A_EAC3
    Duration                    : 52 min 8 s
    Bit rate mode               : Constant
    Bit rate                    : 640 kb/s
    Channel(s)                  : 6 channels
    Channel layout              : L R C LFE Ls Rs
    Sampling rate               : 48.0 kHz
    Frame rate                  : 31.250 FPS (1536 SPF)
    Compression mode            : Lossy
    Stream size                 : 239 MiB (10%)
    Title                       : Español latino / E-AC3 [CinemaniaHDD]
    Language                    : Spanish
    Service kind                : Complete Main
    Default                     : No
    Forced                      : No

    Audio #3
    ID                          : 4
    Format                      : E-AC-3
    Format/Info                 : Enhanced AC-3
    Commercial name             : Dolby Digital Plus
    Codec ID                    : A_EAC3
    Duration                    : 52 min 8 s
    Bit rate mode               : Constant
    Bit rate                    : 640 kb/s
    Channel(s)                  : 6 channels
    Channel layout              : L R C LFE Ls Rs
    Sampling rate               : 48.0 kHz
    Frame rate                  : 31.250 FPS (1536 SPF)
    Compression mode            : Lossy
    Stream size                 : 239 MiB (10%)
    Title                       : Italiano [CinemaniaHDD]
    Language                    : Italian
    Service kind                : Complete Main
    Default                     : No
    Forced                      : No

    Text #1
    ID                          : 5
    Format                      : UTF-8
    Codec ID                    : S_TEXT/UTF8
    Codec ID/Info               : UTF-8 Plain Text
    Duration                    : 43 min 11 s
    Bit rate                    : 1 b/s
    Count of elements           : 22
    Stream size                 : 502 Bytes (0%)
    Title                       : Forzados [CinemaniaHDD]
    Language                    : Spanish
    Default                     : No
    Forced                      : Yes

    Text #2
    ID                          : 6
    Format                      : UTF-8
    Codec ID                    : S_TEXT/UTF8
    Codec ID/Info               : UTF-8 Plain Text
    Duration                    : 49 min 37 s
    Bit rate                    : 39 b/s
    Count of elements           : 456
    Stream size                 : 14.2 KiB (0%)
    Title                       : Español latino [CinemaniaHDD]
    Language                    : Spanish
    Default                     : No
    Forced                      : No

    Text #3
    ID                          : 7
    Format                      : UTF-8
    Codec ID                    : S_TEXT/UTF8
    Codec ID/Info               : UTF-8 Plain Text
    Duration                    : 44 min 30 s
    Bit rate                    : 41 b/s
    Count of elements           : 440
    Stream size                 : 13.6 KiB (0%)
    Title                       : Inglés [CinemaniaHDD]
    Language                    : English
    Default                     : No
    Forced                      : No

    Menu
    00:00:00.000                : Amazon Original
    00:00:07.000                : Scene 2
    00:04:41.000                : Title Sequence
    00:04:53.000                : Scene 4
    00:06:01.000                : Scene 5
    00:10:16.000                : Scene 6
    00:10:42.000                : Scene 7
    00:15:39.000                : Scene 8
    00:17:48.000                : Scene 9
    00:20:14.000                : Scene 10
    00:21:34.000                : Scene 11
    00:27:23.000                : Scene 12
    00:33:50.000                : Scene 13
    00:35:48.000                : Scene 14
    00:37:37.000                : Scene 15
    00:41:44.000                : Scene 16
    00:44:57.000                : Scene 17
    00:48:15.000                : End Credits

     

  • Peso: 2.26 GiB Aprox ---- 23 GiB in 10 Chapters.

Sinopsis

1986. Alice tiene 16 años y vive en un pueblito al norte de Italia. Su vida cambia repentinamente cuando se entera de que su padre, al que creía muerto hace años, sigue vivo. Alice se adentra en el mundo criminal de Milán y se involucra con la poderosa ‘Ndrangheta impulsada por el amor hacia su padre. Para cuando intenta escapar de ese mundo, puede que ya sea demasiado tarde.
 

Ficha técnica

Video trailer de la película

Enlaces de descarga

Rip de Bluray

Descargar Bang Bang Baby (2022) Primera Temporada AMZN WEB-DL 1080p Latino




Aportes de DPeliculasHDmega la pass es:dpeliculashdmega.org Aportes de CinemaniaHD la pass es:cinemaniahdd.com
Guardado en : Crimen , Drama , Series

Películas relacionadas

Bang Bang Baby (2022) Primera Temporada AMZN WEB-DL 1080p Latino pelicula full hd, Bang Bang Baby (2022) Primera Temporada AMZN WEB-DL 1080p Latino mega latino, Bang Bang Baby (2022) Primera Temporada AMZN WEB-DL 1080p Latino 4k latino, Bang Bang Baby (2022) Primera Temporada AMZN WEB-DL 1080p Latino pelicula completa, Bang Bang Baby (2022) Primera Temporada AMZN WEB-DL 1080p Latino descargar gratis, descargar Bang Bang Baby (2022) Primera Temporada AMZN WEB-DL 1080p Latino pelicula latino, Bang Bang Baby (2022) Primera Temporada AMZN WEB-DL 1080p Latino 1 link mega, Bang Bang Baby (2022) Primera Temporada AMZN WEB-DL 1080p Latino 1 link google drive, Bang Bang Baby (2022) Primera Temporada AMZN WEB-DL 1080p Latino hd 1080p latino.
Comentarios 0