Band of Brothers (2001) Temporada 1 HD 1080p Latino

46 vistas
1 estrella2 estrellas3 estrellas4 estrellas5 estrellas (1 votos, promedio: 5,00 de 5)
Cargando...

Información de Band of Brothers (2001) Temporada 1 HD 1080p Latino

Datos de la película

  • Calidad: 1080p
  • Audio: Español Latino AC3 2.0 BLURAY - Ingles AC3 5.1 BLURAY
  • Subtitulos: Español Latino SRT- FORZADOS SRT
  • Resolución: 1920x1080
  • Formato: MKV
  • Codec: H.264
  • Encoder: cinemaniahdd
  • Mediainfo: Clic para Mostrar Datos Ver
  • Band Of Brothers T01E01 HD 1080p Latino [CNMNHDD].mkv
    Format                      : Matroska
    Format version              : Version 4
    File size                   : 2.12 GiB
    Duration                    : 1 h 13 min
    Overall bit rate            : 4 142 kb/s
    Movie name                  : Band Of Brothers T01E01 HD - CinemaniaHDD.Net
    Encoded date                : UTC 2020-09-28 19:30:44
    Writing application         : mkvmerge v46.0.0 ('No Deeper Escape') 64-bit
    Writing library             : libebml v1.3.10 + libmatroska v1.5.2

    Video
    ID                          : 1
    Format                      : AVC
    Format/Info                 : Advanced Video Codec
    Format profile              : Main@L4
    Format settings             : CABAC / 4 Ref Frames
    Format settings, CABAC      : Yes
    Format settings, Reference  : 4 frames
    Codec ID                    : V_MPEG4/ISO/AVC
    Duration                    : 1 h 13 min
    Bit rate                    : 3 500 kb/s
    Width                       : 1 920 pixels
    Height                      : 1 080 pixels
    Display aspect ratio        : 16:9
    Frame rate mode             : Constant
    Frame rate                  : 23.976 (24000/1001) FPS
    Color space                 : YUV
    Chroma subsampling          : 4:2:0
    Bit depth                   : 8 bits
    Scan type                   : Progressive
    Bits/(Pixel*Frame)          : 0.070
    Stream size                 : 1.76 GiB (83%)
    Title                       : CinemaniaHDD
    Writing library             : x264 core 157 r2935 545de2f
    Encoding settings           : cabac=1 / ref=4 / deblock=1:0:0 / analyse=0x1:0x131 / me=umh / subme=9 / psy=1 / psy_rd=1.00:0.00 / mixed_ref=1 / me_range=16 / chroma_me=1 / trellis=2 / 8x8dct=0 / cqm=0 / deadzone=21,11 / fast_pskip=1 / chroma_qp_offset=-2 / threads=24 / lookahead_threads=2 / sliced_threads=0 / nr=0 / decimate=1 / interlaced=0 / bluray_compat=0 / constrained_intra=0 / bframes=3 / b_pyramid=2 / b_adapt=2 / b_bias=0 / direct=3 / weightb=1 / open_gop=0 / weightp=2 / keyint=240 / keyint_min=24 / scenecut=40 / intra_refresh=0 / rc_lookahead=60 / rc=abr / mbtree=1 / bitrate=3500 / ratetol=1.0 / qcomp=0.60 / qpmin=0 / qpmax=69 / qpstep=4 / vbv_maxrate=20000 / vbv_bufsize=25000 / nal_hrd=none / filler=0 / ip_ratio=1.40 / aq=1:1.00
    Default                     : Yes
    Forced                      : No
    Color range                 : Limited
    Color primaries             : BT.709
    Transfer characteristics    : BT.709
    Matrix coefficients         : BT.709

    Audio #1
    ID                          : 2
    Format                      : AC-3
    Format/Info                 : Audio Coding 3
    Commercial name             : Dolby Digital
    Codec ID                    : A_AC3
    Duration                    : 1 h 13 min
    Bit rate mode               : Constant
    Bit rate                    : 256 kb/s
    Channel(s)                  : 2 channels
    Channel layout              : L R
    Sampling rate               : 48.0 kHz
    Frame rate                  : 31.250 FPS (1536 SPF)
    Compression mode            : Lossy
    Delay relative to video     : -5 ms
    Stream size                 : 134 MiB (6%)
    Title                       : Español latino [CinemaniaHDD]
    Language                    : Spanish
    Service kind                : Complete Main
    Default                     : Yes
    Forced                      : No

    Audio #2
    ID                          : 3
    Format                      : AC-3
    Format/Info                 : Audio Coding 3
    Commercial name             : Dolby Digital
    Codec ID                    : A_AC3
    Duration                    : 1 h 13 min
    Bit rate mode               : Constant
    Bit rate                    : 448 kb/s
    Channel(s)                  : 6 channels
    Channel layout              : L R C LFE Ls Rs
    Sampling rate               : 48.0 kHz
    Frame rate                  : 31.250 FPS (1536 SPF)
    Compression mode            : Lossy
    Delay relative to video     : -5 ms
    Stream size                 : 235 MiB (11%)
    Title                       : Inglés [CinemaniaHDD]
    Language                    : English
    Service kind                : Complete Main
    Default                     : No
    Forced                      : No

    Text #1
    ID                          : 4
    Format                      : UTF-8
    Codec ID                    : S_TEXT/UTF8
    Codec ID/Info               : UTF-8 Plain Text
    Duration                    : 1 h 5 min
    Bit rate                    : 1 b/s
    Count of elements           : 25
    Stream size                 : 702 Bytes (0%)
    Title                       : Forzados [CinemaniaHDD]
    Language                    : Spanish
    Default                     : Yes
    Forced                      : Yes

    Text #2
    ID                          : 5
    Format                      : UTF-8
    Codec ID                    : S_TEXT/UTF8
    Codec ID/Info               : UTF-8 Plain Text
    Duration                    : 1 h 9 min
    Bit rate                    : 51 b/s
    Count of elements           : 800
    Stream size                 : 26.5 KiB (0%)
    Title                       : Español latino [CinemaniaHDD]
    Language                    : Spanish
    Default                     : No
    Forced                      : No

    Menu
    00:00:00.000                : :Capítulo 01
    00:01:40.100                : :Capítulo 02
    00:04:03.744                : :Capítulo 03
    00:08:25.505                : :Capítulo 04
    00:23:43.631                : :Capítulo 05
    00:28:11.190                : :Capítulo 06
    00:33:34.930                : :Capítulo 07
    00:36:21.805                : :Capítulo 08
    00:52:15.132                : :Capítulo 09
    01:01:58.215                : :Capítulo 10
    01:10:06.202                : :Capítulo 11

     

  • Peso: 2.12 GiB C/U --- 18 GiB en 10 Chapters.

Sinopsis

Basada en el bestseller «Band Of Brothers», de Stephen E. Ambrose. Narra la historia de la Easy Company, un batallón estadounidense del regimiento 506 de paracaidistas, que luchó en Europa durante la II Guerra Mundial (1939-1945). Incluye entrevistas a los supervivientes, recuerdos de los periodistas y cartas de los soldados.

Ficha técnica

Video trailer de la película

Enlaces de descarga

Rip de Bluray

Descargar Band of Brothers (2001) Temporada 1 HD 1080p Latino




Aportes de DPeliculasHDmega la pass es:dpeliculashdmega.org Aportes de CinemaniaHD la pass es:cinemaniahdd.com
Guardado en : Drama , HBO , HD 1080p , Series , War & Politics

Películas relacionadas

  • Viernes 13 (2009) 1080p Latino

    Viernes 13 (2009) 1080p Latino

    2009
    Viernes 13 (2009) 1080p Latino

    0.0 1h 37m 2009

    Descargar Viernes 13 (2009) 1080p Latino. Remake del clásico film de terror, dirigido en 1980 por Sean...

    Director: Marcus Nispel

    Género: HD 1080p

    Actores: Willa Ford

  • Viernes 13 (2009) UNRATED Killer Cut 1080p Latino

    Viernes 13 (2009) UNRATED Killer Cut 1080p Latino

    2009
    Viernes 13 (2009) UNRATED Killer Cut 1080p Latino

    0.0 1h 37m 2009

    Descargar Viernes 13 (2009) UNRATED Killer Cut 1080p Latino. Remake del clásico film de terror, dirigido...

    Director: Marcus Nispel

    Género: HD 1080p

    Actores: Willa Ford

  • Viernes 13: Freddy vs. Jason (2003) 1080p Latino

    Viernes 13: Freddy vs. Jason (2003) 1080p Latino

    2003
    Viernes 13: Freddy vs. Jason (2003) 1080p Latino

    0.0 1h 37m 2003

    Descargar Freddy vs. Jason (2003) 1080p Latino. Freddy Krueger necesita el miedo de la gente para regresar,...

    Director: Ronny Yu

    Género: HD 1080p

    Actores: Zack Ward

  • Viernes 13 Parte X: Jason X (2001) 1080p Latino

    Viernes 13 Parte X: Jason X (2001) 1080p Latino

    2001
    Viernes 13 Parte X: Jason X (2001) 1080p Latino

    0.0 1h 31m 2001

    Descargar Viernes 13 Parte X: Jason X (2001) 1080p Latino. En el año 2455, Old Earth es ahora un planeta...

    Director: Walter Gasparovic

    Género: Ciencia ficción

    Actores: Yani Gellman

Comentarios 0