×

¿Problemas para descargar con Mozilla, EDGE? Deshabilita la opción "Abrir vinculos en una pestaña nueva" tal como lo muestra ésta imagen.

Bambi (1942) REMUX 1080p Latino – CMHDD

257 vistas

Información de Bambi (1942) REMUX 1080p Latino – CMHDD

Datos de la película

  • Calidad: Full 1080p
  • Audio: Español Latino AC3 5.1 BLURAY - Ingles DTS-HD Master 7.1 BLURAY
  • Subtitulos: Español Latino SRT
  • Resolución: 1920x1080p
  • Formato: MKV
  • Codec: H.264
  • Encoder: Dracarys
  • Mediainfo: Clic para Mostrar Datos Ver
  • Format                      : Matroska
    Format version              : Version 4
    File size                   : 12.9 GiB
    Duration                    : 1 h 9 min
    Overall bit rate mode       : Variable
    Overall bit rate            : 26.4 Mb/s
    Movie name                  : Bambi (1942) REMUX 1080p Latino - CMHDD
    Encoded date                : UTC 2020-08-07 20:21:07
    Writing application         : mkvmerge v46.0.0 ('No Deeper Escape') 64-bit
    Writing library             : libebml v1.3.10 + libmatroska v1.5.2

    Video
    ID                          : 1
    Format                      : AVC
    Format/Info                 : Advanced Video Codec
    Format profile              : High@L4.1
    Format settings             : CABAC / 4 Ref Frames
    Format settings, CABAC      : Yes
    Format settings, Reference  : 4 frames
    Codec ID                    : V_MPEG4/ISO/AVC
    Duration                    : 1 h 9 min
    Bit rate mode               : Variable
    Bit rate                    : 23.9 Mb/s
    Maximum bit rate            : 38.0 Mb/s
    Width                       : 1 920 pixels
    Height                      : 1 080 pixels
    Display aspect ratio        : 16:9
    Frame rate mode             : Constant
    Frame rate                  : 23.976 (24000/1001) FPS
    Color space                 : YUV
    Chroma subsampling          : 4:2:0
    Bit depth                   : 8 bits
    Scan type                   : Progressive
    Bits/(Pixel*Frame)          : 0.481
    Stream size                 : 11.7 GiB (91%)
    Default                     : Yes
    Forced                      : No
    Color range                 : Limited
    Color primaries             : BT.709
    Transfer characteristics    : BT.709
    Matrix coefficients         : BT.709

    Audio #1
    ID                          : 2
    Format                      : AC-3
    Format/Info                 : Audio Coding 3
    Commercial name             : Dolby Digital
    Codec ID                    : A_AC3
    Duration                    : 1 h 9 min
    Bit rate mode               : Constant
    Bit rate                    : 448 kb/s
    Channel(s)                  : 6 channels
    Channel layout              : L R C LFE Ls Rs
    Sampling rate               : 48.0 kHz
    Frame rate                  : 31.250 FPS (1536 SPF)
    Compression mode            : Lossy
    Stream size                 : 224 MiB (2%)
    Language                    : Spanish
    Service kind                : Complete Main
    Default                     : Yes
    Forced                      : No

    Audio #2
    ID                          : 3
    Format                      : DTS XBR
    Format/Info                 : Digital Theater Systems
    Commercial name             : DTS-HD High Resolution Audio
    Codec ID                    : A_DTS
    Duration                    : 1 h 9 min
    Bit rate mode               : Constant
    Bit rate                    : 2 046 kb/s
    Channel(s)                  : 8 channels
    Channel layout              : C L R LFE Lb Rb Lss Rss
    Sampling rate               : 48.0 kHz
    Frame rate                  : 93.750 FPS (512 SPF)
    Bit depth                   : 24 bits
    Compression mode            : Lossy
    Stream size                 : 1 022 MiB (8%)
    Language                    : English
    Default                     : No
    Forced                      : No

    Text
    ID                          : 4
    Format                      : UTF-8
    Codec ID                    : S_TEXT/UTF8
    Codec ID/Info               : UTF-8 Plain Text
    Duration                    : 1 h 9 min
    Bit rate                    : 19 b/s
    Count of elements           : 398
    Stream size                 : 9.82 KiB (0%)
    Language                    : Spanish
    Default                     : No
    Forced                      : No

  • Peso: 12.9 GiB

Sinopsis

Con los primeros rayos del sol iluminando la pradera, un nuevo príncipe ha nacido en el bosque. Tan pronto como Bambi aprende a dar sus primeros pasos, comienza a jugar con sus nuevos amigos, Tambor, el conejo juguetón, y Flor, la tímida y adorable mofeta. Pero la diversión de patinar sobre el lago helado, de mordisquear las florecillas y de juguetear entre los árboles del bosque será sólo el principio de un largo aprendizaje.

Ficha técnica

Video trailer de la película

Enlaces de descarga

Rip de Bluray

Descargar Bambi (1942) REMUX 1080p Latino – CMHDD




Aportes de DPeliculasHDmega la pass es:dpeliculashdmega.org Aportes de CinemaniaHD la pass es:cinemaniahdd.com
Guardado en : Animación , Drama , Familia

Películas relacionadas

descargar Bambi (1942) REMUX 1080p Latino – CMHDD Full 1080p 1080p gratis, Bambi (1942) REMUX 1080p Latino – CMHDD Full 1080p mega 1 link, Bambi (1942) REMUX 1080p Latino – CMHDD Full 1080p pelicula completa, descargar Bambi (1942) REMUX 1080p Latino – CMHDD Full 1080p gratis en mega.

Bambi (1942) REMUX 1080p Latino – CMHDD pelicula full hd, Bambi (1942) REMUX 1080p Latino – CMHDD mega latino, Bambi (1942) REMUX 1080p Latino – CMHDD 4k latino, Bambi (1942) REMUX 1080p Latino – CMHDD pelicula completa, Bambi (1942) REMUX 1080p Latino – CMHDD descargar gratis, descargar Bambi (1942) REMUX 1080p Latino – CMHDD pelicula latino, Bambi (1942) REMUX 1080p Latino – CMHDD 1 link mega, Bambi (1942) REMUX 1080p Latino – CMHDD 1 link google drive, Bambi (1942) REMUX 1080p Latino – CMHDD hd 1080p latino.
Comentarios 0