×

¿Problemas para descargar con Mozilla, EDGE? Deshabilita la opción "Abrir vinculos en una pestaña nueva" tal como lo muestra ésta imagen.

Ballers (2019) Temporada 5 AMZN WEB-DL 1080p Latino

3.103 vistas

Información de Ballers (2019) Temporada 5 AMZN WEB-DL 1080p Latino

Datos de la película

  • Calidad: WEBDL
  • Audio: Español Latino AC3 2.0 - Ingles AC3 5.1 HBO
  • Subtitulos: Español Latino SRT- FORZADOS SRT
  • Resolución: 1920x1080
  • Formato: MKV
  • Codec: H.264
  • Encoder: cinemaniahdd
  • Mediainfo: Clic para Mostrar Datos Ver
  • Ballers T05E01 AMZN WEB-DL 1080p Latino.mkv
    Format                      : Matroska
    Format version              : Version 4
    File size                   : 2.18 GiB
    Duration                    : 30 min 58 s
    Overall bit rate            : 10.1 Mb/s
    Movie name                  : Ballers T05E01 - CinemaniaHDD.Net
    Encoded date                : UTC 2019-08-26 23:59:57
    Writing application         : mkvmerge v35.0.0 ('All The Love In The World') 64-bit
    Writing library             : libebml v1.3.9 + libmatroska v1.5.2

    Video
    ID                          : 1
    Format                      : AVC
    Format/Info                 : Advanced Video Codec
    Format profile              : High@L4
    Format settings             : CABAC / 4 Ref Frames
    Format settings, CABAC      : Yes
    Format settings, ReFrames   : 4 frames
    Codec ID                    : V_MPEG4/ISO/AVC
    Duration                    : 30 min 58 s
    Bit rate mode               : Constant
    Bit rate                    : 9 202 kb/s
    Nominal bit rate            : 10 000 kb/s
    Width                       : 1 920 pixels
    Height                      : 1 080 pixels
    Display aspect ratio        : 16:9
    Frame rate mode             : Constant
    Frame rate                  : 23.976 (24000/1001) FPS
    Color space                 : YUV
    Chroma subsampling          : 4:2:0
    Bit depth                   : 8 bits
    Scan type                   : Progressive
    Bits/(Pixel*Frame)          : 0.185
    Stream size                 : 1.99 GiB (91%)
    Title                       : CinemaniaHDD
    Default                     : Yes
    Forced                      : No
    Color range                 : Limited
    Color primaries             : BT.709
    Transfer characteristics    : BT.709
    Matrix coefficients         : BT.709

    Audio #1
    ID                          : 2
    Format                      : AC-3
    Format/Info                 : Audio Coding 3
    Commercial name             : Dolby Digital
    Codec ID                    : A_AC3
    Duration                    : 30 min 58 s
    Bit rate mode               : Constant
    Bit rate                    : 256 kb/s
    Channel(s)                  : 2 channels
    Channel layout              : L R
    Sampling rate               : 48.0 kHz
    Frame rate                  : 31.250 FPS (1536 SPF)
    Bit depth                   : 16 bits
    Compression mode            : Lossy
    Stream size                 : 56.7 MiB (3%)
    Title                       : Español latino [CinemaniaHDD]
    Language                    : Spanish
    Service kind                : Complete Main
    Default                     : Yes
    Forced                      : No

    Audio #2
    ID                          : 3
    Format                      : E-AC-3
    Format/Info                 : Enhanced AC-3
    Commercial name             : Dolby Digital Plus
    Codec ID                    : A_EAC3
    Duration                    : 30 min 58 s
    Bit rate mode               : Constant
    Bit rate                    : 640 kb/s
    Channel(s)                  : 6 channels
    Channel layout              : L R C LFE Ls Rs
    Sampling rate               : 48.0 kHz
    Frame rate                  : 31.250 FPS (1536 SPF)
    Compression mode            : Lossy
    Delay relative to video     : 12 ms
    Stream size                 : 142 MiB (6%)
    Title                       : Inglés [CinemaniaHDD]
    Language                    : English
    Service kind                : Complete Main
    Default                     : No
    Forced                      : No

    Text #1
    ID                          : 4
    Format                      : UTF-8
    Codec ID                    : S_TEXT/UTF8
    Codec ID/Info               : UTF-8 Plain Text
    Duration                    : 14 min 54 s
    Bit rate                    : 19 b/s
    Count of elements           : 54
    Stream size                 : 2.08 KiB (0%)
    Title                       : Forzados [CinemaniaHDD]
    Language                    : Spanish
    Default                     : Yes
    Forced                      : Yes

    Text #2
    ID                          : 5
    Format                      : UTF-8
    Codec ID                    : S_TEXT/UTF8
    Codec ID/Info               : UTF-8 Plain Text
    Duration                    : 28 min 6 s
    Bit rate                    : 90 b/s
    Count of elements           : 556
    Stream size                 : 18.7 KiB (0%)
    Title                       : Español latino [CinemaniaHDD]
    Language                    : Spanish
    Default                     : No
    Forced                      : No

     

  • Peso: 2.18 GiB --- 7 CAPITULO AGREGADO

Sinopsis

Esta nueva comedia se centra en las vidas de un grupo de jugadores de fútbol americano, tanto titulares como retirados, entre los que se encuentra Spencer Strassmore, interpretado por Dwayne Johnson ‘La Roca’ en su primer gran papel protagonista para una serie de televisión. Strasmore es una superestrella del fútbol que, tras haberse retirado, intenta reubicar su vida mientras se dedica a ser el gurú de otros jugadores dentro del competitivo negocio del fútbol en pleno Miami.

FINAL DE TEMPORADA

8 CAPITULOS AGREGADOS

Ficha técnica

Video trailer de la película

Enlaces de descarga

Rip de Bluray

Descargar Ballers (2019) Temporada 5 AMZN WEB-DL 1080p Latino




Aportes de DPeliculasHDmega la pass es:dpeliculashdmega.org Aportes de CinemaniaHD la pass es:cinemaniahdd.com
Guardado en : Comedia , Drama , HBO , Series

Películas relacionadas

Ballers (2019) Temporada 5 AMZN WEB-DL 1080p Latino pelicula full hd, Ballers (2019) Temporada 5 AMZN WEB-DL 1080p Latino mega latino, Ballers (2019) Temporada 5 AMZN WEB-DL 1080p Latino 4k latino, Ballers (2019) Temporada 5 AMZN WEB-DL 1080p Latino pelicula completa, Ballers (2019) Temporada 5 AMZN WEB-DL 1080p Latino descargar gratis, descargar Ballers (2019) Temporada 5 AMZN WEB-DL 1080p Latino pelicula latino, Ballers (2019) Temporada 5 AMZN WEB-DL 1080p Latino 1 link mega, Ballers (2019) Temporada 5 AMZN WEB-DL 1080p Latino 1 link google drive, Ballers (2019) Temporada 5 AMZN WEB-DL 1080p Latino hd 1080p latino.
Comentarios 1
  • KIKE - 26 agosto, 2019

    Gracias por compartir, les pido por favor subir la temporada 4, busque en su catalogo y solo tienen la 3ra.