×

¿Problemas para descargar con Mozilla, EDGE? Deshabilita la opción "Abrir vinculos en una pestaña nueva" tal como lo muestra ésta imagen.

Ballers (2018) Temporada 4 1080p Latino

835 vistas

Información de Ballers (2018) Temporada 4 1080p Latino

Datos de la película

  • Calidad: 1080p
  • Audio: Español Latino AC3 2.0 - Ingles AC3 5.1 HBO
  • Subtitulos: Español Latino SRT- FORZADOS SRT
  • Resolución: 1920x1080
  • Formato: MKV
  • Codec: H.264
  • Encoder: cinemaniahdd
  • Mediainfo: Clic para Mostrar Datos Ver
  • Ballers T04E01 1080p Latino.mkv
    Format                      : Matroska
    Format version              : Version 4
    File size                   : 2.06 GiB
    Duration                    : 29 min 54 s
    Overall bit rate            : 9 839 kb/s
    Movie name                  : Ballers T04E01 - CinemaniaHDD.Net
    Encoded date                : UTC 2019-08-28 01:17:01
    Writing application         : mkvmerge v35.0.0 ('All The Love In The World') 64-bit
    Writing library             : libebml v1.3.9 + libmatroska v1.5.2

    Video
    ID                          : 1
    Format                      : AVC
    Format/Info                 : Advanced Video Codec
    Format profile              : High@L4.1
    Format settings             : CABAC / 4 Ref Frames
    Format settings, CABAC      : Yes
    Format settings, ReFrames   : 4 frames
    Codec ID                    : V_MPEG4/ISO/AVC
    Duration                    : 29 min 54 s
    Bit rate                    : 8 941 kb/s
    Width                       : 1 920 pixels
    Height                      : 1 080 pixels
    Display aspect ratio        : 16:9
    Frame rate mode             : Constant
    Frame rate                  : 23.976 FPS
    Color space                 : YUV
    Chroma subsampling          : 4:2:0
    Bit depth                   : 8 bits
    Scan type                   : Progressive
    Bits/(Pixel*Frame)          : 0.180
    Stream size                 : 1.87 GiB (91%)
    Title                       : CinemaniaHDD
    Writing library             : x264 core 157 r2935 545de2f
    Encoding settings           : cabac=1 / ref=4 / deblock=1:0:0 / analyse=0x3:0x133 / me=umh / subme=7 / psy=1 / psy_rd=1.00:0.00 / mixed_ref=1 / me_range=16 / chroma_me=1 / trellis=2 / 8x8dct=1 / cqm=0 / deadzone=21,11 / fast_pskip=0 / chroma_qp_offset=-2 / threads=18 / lookahead_threads=3 / sliced_threads=0 / nr=0 / decimate=1 / interlaced=0 / bluray_compat=0 / constrained_intra=0 / bframes=3 / b_pyramid=2 / b_adapt=1 / b_bias=0 / direct=3 / weightb=1 / open_gop=0 / weightp=2 / keyint=250 / keyint_min=23 / scenecut=40 / intra_refresh=0 / rc_lookahead=50 / rc=2pass / mbtree=1 / bitrate=8941 / ratetol=1.0 / qcomp=0.60 / qpmin=0 / qpmax=69 / qpstep=4 / cplxblur=20.0 / qblur=0.5 / ip_ratio=1.40 / aq=1:1.00
    Language                    : English
    Default                     : Yes
    Forced                      : No

    Audio #1
    ID                          : 2
    Format                      : AC-3
    Format/Info                 : Audio Coding 3
    Commercial name             : Dolby Digital
    Codec ID                    : A_AC3
    Duration                    : 29 min 54 s
    Bit rate mode               : Constant
    Bit rate                    : 256 kb/s
    Channel(s)                  : 2 channels
    Channel layout              : L R
    Sampling rate               : 48.0 kHz
    Frame rate                  : 31.250 FPS (1536 SPF)
    Bit depth                   : 16 bits
    Compression mode            : Lossy
    Stream size                 : 54.8 MiB (3%)
    Title                       : Español latino [CinemaniaHDD]
    Language                    : Spanish
    Service kind                : Complete Main
    Default                     : Yes
    Forced                      : No

    Audio #2
    ID                          : 3
    Format                      : AC-3
    Format/Info                 : Audio Coding 3
    Commercial name             : Dolby Digital
    Codec ID                    : A_AC3
    Duration                    : 29 min 54 s
    Bit rate mode               : Constant
    Bit rate                    : 640 kb/s
    Channel(s)                  : 6 channels
    Channel layout              : L R C LFE Ls Rs
    Sampling rate               : 48.0 kHz
    Frame rate                  : 31.250 FPS (1536 SPF)
    Bit depth                   : 16 bits
    Compression mode            : Lossy
    Stream size                 : 137 MiB (7%)
    Title                       : Inglés [CinemaniaHDD]
    Language                    : English
    Service kind                : Complete Main
    Default                     : No
    Forced                      : No

    Text #1
    ID                          : 4
    Format                      : UTF-8
    Codec ID                    : S_TEXT/UTF8
    Codec ID/Info               : UTF-8 Plain Text
    Duration                    : 1 s 0 ms
    Bit rate                    : 48 b/s
    Count of elements           : 1
    Stream size                 : 6.00 Bytes (0%)
    Title                       : Forzados [CinemaniaHDD]
    Language                    : Spanish
    Default                     : Yes
    Forced                      : Yes

    Text #2
    ID                          : 5
    Format                      : UTF-8
    Codec ID                    : S_TEXT/UTF8
    Codec ID/Info               : UTF-8 Plain Text
    Duration                    : 27 min 6 s
    Bit rate                    : 84 b/s
    Count of elements           : 543
    Stream size                 : 16.8 KiB (0%)
    Title                       : Español latino [CinemaniaHDD]
    Language                    : Spanish
    Default                     : No
    Forced                      : No

    Menu
    00:00:00.000                : en:00:00:00.000
    00:01:17.995                : en:00:01:17.995
    00:07:51.388                : en:00:07:51.388
    00:16:43.085                : en:00:16:43.085
    00:22:46.490                : en:00:22:46.490
    00:28:40.510                : en:00:28:40.510

     

  • Peso: 2.06 GiB c/u

Sinopsis

Esta nueva comedia se centra en las vidas de un grupo de jugadores de fútbol americano, tanto titulares como retirados, entre los que se encuentra Spencer Strassmore, interpretado por Dwayne Johnson ‘La Roca’ en su primer gran papel protagonista para una serie de televisión. Strasmore es una superestrella del fútbol que, tras haberse retirado, intenta reubicar su vida mientras se dedica a ser el gurú de otros jugadores dentro del competitivo negocio del fútbol en pleno Miami.

Ficha técnica

Video trailer de la película

Enlaces de descarga

Rip de Bluray

Descargar Ballers (2018) Temporada 4 1080p Latino




Aportes de DPeliculasHDmega la pass es:dpeliculashdmega.org Aportes de CinemaniaHD la pass es:cinemaniahdd.com
Guardado en : Comedia , Drama , HBO , HD 1080p

Películas relacionadas

Ballers (2018) Temporada 4 1080p Latino pelicula full hd, Ballers (2018) Temporada 4 1080p Latino mega latino, Ballers (2018) Temporada 4 1080p Latino 4k latino, Ballers (2018) Temporada 4 1080p Latino pelicula completa, Ballers (2018) Temporada 4 1080p Latino descargar gratis, descargar Ballers (2018) Temporada 4 1080p Latino pelicula latino, Ballers (2018) Temporada 4 1080p Latino 1 link mega, Ballers (2018) Temporada 4 1080p Latino 1 link google drive, Ballers (2018) Temporada 4 1080p Latino hd 1080p latino.
Comentarios 3
  • Atrahasis - 18 junio, 2020

    Gracias se lucieron con Ballers! Son la unica web que tiene esta serie con la mejor calidad y en latino. Saludos!

  • cranck_247 - 28 agosto, 2019

    son los mejores, mil gracias

  • Guillermo - 28 agosto, 2019

    Hola, siempre agradecido de tus aportes, te comento que el archivo Ballers T04E08 1080p Latino, esta corrupto, lo baje de dos servidores distintos, pero no lo puedo reproducir, lo podrías resubir, un abrazo y gracias.