×

¿Problemas para descargar con Mozilla, EDGE? Deshabilita la opción "Abrir vinculos en una pestaña nueva" tal como lo muestra ésta imagen.

Ballers (2016) Temporada 2 1080p Latino

810 vistas

Información de Ballers (2016) Temporada 2 1080p Latino

Datos de la película

  • Calidad: 1080p
  • Audio: Español Latino AC3 2.0 - Ingles AC3 5.1 HBO
  • Subtitulos: Español Latino SRT
  • Resolución: 1920x1080
  • Formato: MKV
  • Codec: H.264
  • Encoder: cinemaniahdd
  • Mediainfo: Clic para Mostrar Datos Ver
  • Ballers T02E01 1080p Latino.mkv
    Format                      : Matroska
    Format version              : Version 4
    File size                   : 2.07 GiB
    Duration                    : 26 min 36 s
    Overall bit rate            : 11.1 Mb/s
    Movie name                  : Ballers T02E01 - CinemaniaHDD.Net
    Encoded date                : UTC 2019-08-30 01:34:49
    Writing application         : mkvmerge v35.0.0 ('All The Love In The World') 64-bit
    Writing library             : libebml v1.3.9 + libmatroska v1.5.2

    Video
    ID                          : 1
    Format                      : AVC
    Format/Info                 : Advanced Video Codec
    Format profile              : High@L4.1
    Format settings             : CABAC / 4 Ref Frames
    Format settings, CABAC      : Yes
    Format settings, ReFrames   : 4 frames
    Codec ID                    : V_MPEG4/ISO/AVC
    Duration                    : 26 min 36 s
    Bit rate                    : 10.2 Mb/s
    Width                       : 1 920 pixels
    Height                      : 1 080 pixels
    Display aspect ratio        : 16:9
    Frame rate mode             : Constant
    Frame rate                  : 23.976 FPS
    Color space                 : YUV
    Chroma subsampling          : 4:2:0
    Bit depth                   : 8 bits
    Scan type                   : Progressive
    Bits/(Pixel*Frame)          : 0.206
    Stream size                 : 1.90 GiB (92%)
    Title                       : CinemaniaHDD
    Writing library             : x264 core 148 r2744 b97ae06
    Encoding settings           : cabac=1 / ref=4 / deblock=1:0:0 / analyse=0x3:0x133 / me=umh / subme=7 / psy=1 / psy_rd=1.00:0.00 / mixed_ref=1 / me_range=16 / chroma_me=1 / trellis=1 / 8x8dct=1 / cqm=0 / deadzone=21,11 / fast_pskip=0 / chroma_qp_offset=-2 / threads=34 / lookahead_threads=5 / sliced_threads=0 / nr=0 / decimate=1 / interlaced=0 / bluray_compat=0 / constrained_intra=0 / bframes=3 / b_pyramid=2 / b_adapt=1 / b_bias=0 / direct=1 / weightb=1 / open_gop=0 / weightp=2 / keyint=250 / keyint_min=23 / scenecut=40 / intra_refresh=0 / rc_lookahead=40 / rc=2pass / mbtree=1 / bitrate=10235 / ratetol=1.0 / qcomp=0.60 / qpmin=0 / qpmax=69 / qpstep=4 / cplxblur=20.0 / qblur=0.5 / ip_ratio=1.40 / aq=1:1.00
    Language                    : English
    Default                     : Yes
    Forced                      : No

    Audio #1
    ID                          : 2
    Format                      : AC-3
    Format/Info                 : Audio Coding 3
    Commercial name             : Dolby Digital
    Codec ID                    : A_AC3
    Duration                    : 26 min 36 s
    Bit rate mode               : Constant
    Bit rate                    : 256 kb/s
    Channel(s)                  : 2 channels
    Channel layout              : L R
    Sampling rate               : 48.0 kHz
    Frame rate                  : 31.250 FPS (1536 SPF)
    Bit depth                   : 16 bits
    Compression mode            : Lossy
    Stream size                 : 48.7 MiB (2%)
    Title                       : Español latino [CinemaniaHDD]
    Language                    : Spanish
    Service kind                : Complete Main
    Default                     : Yes
    Forced                      : No

    Audio #2
    ID                          : 3
    Format                      : AC-3
    Format/Info                 : Audio Coding 3
    Commercial name             : Dolby Digital
    Codec ID                    : A_AC3
    Duration                    : 26 min 36 s
    Bit rate mode               : Constant
    Bit rate                    : 640 kb/s
    Channel(s)                  : 6 channels
    Channel layout              : L R C LFE Ls Rs
    Sampling rate               : 48.0 kHz
    Frame rate                  : 31.250 FPS (1536 SPF)
    Bit depth                   : 16 bits
    Compression mode            : Lossy
    Stream size                 : 122 MiB (6%)
    Title                       : Inglés [CinemaniaHDD]
    Language                    : English
    Service kind                : Complete Main
    Default                     : No
    Forced                      : No

    Text
    ID                          : 4
    Format                      : UTF-8
    Codec ID                    : S_TEXT/UTF8
    Codec ID/Info               : UTF-8 Plain Text
    Duration                    : 23 min 43 s
    Bit rate                    : 88 b/s
    Count of elements           : 496
    Stream size                 : 15.4 KiB (0%)
    Title                       : Español latino [CinemaniaHDD]
    Language                    : Spanish
    Default                     : No
    Forced                      : No

    Menu
    00:00:00.000                : en:00:00:00.000
    00:01:18.495                : en:00:01:18.495
    00:07:26.988                : en:00:07:26.988
    00:13:06.869                : en:00:13:06.869
    00:20:07.957                : en:00:20:07.957
    00:25:23.397                : en:00:25:23.397

     

  • Peso: 2.07 GiB c/u

Sinopsis

Serie de TV. Narra la vida de un grupo de jugadores de fútbol americano, algunos en activo y otros retirados, con Dwayne Johnson en el papel de Spencer Strasmore, un atleta ya retirado. El grupo se compone de Charles (Omar Benson Miller), un jugador retirado que está buscando cual es el siguiente paso en su carrera; Ricky (John David Washington), un atleta muy competitivo y espiritual; y Vernon (Donovan W. Carter), un deportista muy centrado en su familia. Además, tendrán que lidiar con Joe (Rob Corddry), un asesor financiero al que le cuesta encajar; Jason (Troy Garity), un agente de primer nivel; Michaels (Taylor Cole) una reportera de ESPN que está enamorada de Spencer; y Tina (Letoya Luckett), la viuda de uno de los mejores amigos de Spencer.

Ficha técnica

Video trailer de la película

Enlaces de descarga

Rip de Bluray

Descargar Ballers (2016) Temporada 2 1080p Latino




Aportes de DPeliculasHDmega la pass es:dpeliculashdmega.org Aportes de CinemaniaHD la pass es:cinemaniahdd.com
Guardado en : Comedia , Drama , HBO , HD 1080p

Películas relacionadas

Ballers (2016) Temporada 2 1080p Latino pelicula full hd, Ballers (2016) Temporada 2 1080p Latino mega latino, Ballers (2016) Temporada 2 1080p Latino 4k latino, Ballers (2016) Temporada 2 1080p Latino pelicula completa, Ballers (2016) Temporada 2 1080p Latino descargar gratis, descargar Ballers (2016) Temporada 2 1080p Latino pelicula latino, Ballers (2016) Temporada 2 1080p Latino 1 link mega, Ballers (2016) Temporada 2 1080p Latino 1 link google drive, Ballers (2016) Temporada 2 1080p Latino hd 1080p latino.
Comentarios 0