Baki (2018) Temporada 1 NF 1080p Español Latino

1.153 vistas
1 estrella2 estrellas3 estrellas4 estrellas5 estrellas (4 votos, promedio: 3,75 de 5)
Cargando…

Información de Baki (2018) Temporada 1 NF 1080p Español Latino

Datos de la película

  • Calidad: WEBDL
  • Audio: Español Latino E-AC3 2.0 Netflix - Ingles E-AC3 2.0 Netflix
  • Subtitulos: Español Latino SRT - Ingles SRT
  • Resolución: 1920x1080
  • Formato: MKV
  • Codec: H.264
  • Encoder: cinemaniahd
  • Mediainfo: Clic para Mostrar Datos Ver
  • BAKI S01E01 (2018) NF 1080p Español Latino.mkv
    Format                      : Matroska
    Format version              : Version 4
    File size                   : 1.29 GiB
    Duration                    : 24 min 13 s
    Overall bit rate mode       : Variable
    Overall bit rate            : 7 639 kb/s
    Encoded date                : UTC 2019-01-12 04:53:19
    Writing application         : mkvmerge v30.1.0 ('Forever And More') 64-bit
    Writing library             : libebml v1.3.6 + libmatroska v1.4.9

    Video
    ID                          : 1
    Format                      : AVC
    Format/Info                 : Advanced Video Codec
    Format profile              : [email protected]
    Format settings             : CABAC / 3 Ref Frames
    Format settings, CABAC      : Yes
    Format settings, ReFrames   : 3 frames
    Codec ID                    : V_MPEG4/ISO/AVC
    Duration                    : 24 min 13 s
    Bit rate mode               : Variable
    Bit rate                    : 7 500 kb/s
    Maximum bit rate            : 11.2 Mb/s
    Width                       : 1 920 pixels
    Height                      : 1 080 pixels
    Display aspect ratio        : 16:9
    Frame rate mode             : Constant
    Frame rate                  : 23.976 (24000/1001) FPS
    Color space                 : YUV
    Chroma subsampling          : 4:2:0
    Bit depth                   : 8 bits
    Scan type                   : Progressive
    Bits/(Pixel*Frame)          : 0.151
    Stream size                 : 1.25 GiB (97%)
    Writing library             : x264 core 148 r2715 7e75228
    Encoding settings           : cabac=1 / ref=3 / deblock=1:0:0 / analyse=0x1:0x111 / me=umh / subme=10 / psy=1 / psy_rd=1.00:0.00 / mixed_ref=1 / me_range=24 / chroma_me=1 / trellis=2 / 8x8dct=0 / cqm=0 / deadzone=21,11 / fast_pskip=1 / chroma_qp_offset=-2 / threads=6 / lookahead_threads=1 / sliced_threads=0 / nr=0 / decimate=1 / interlaced=0 / bluray_compat=0 / stitchable=1 / constrained_intra=0 / bframes=2 / b_pyramid=0 / b_adapt=2 / b_bias=0 / direct=3 / weightb=1 / open_gop=0 / weightp=2 / keyint=48 / keyint_min=25 / scenecut=0 / intra_refresh=0 / rc_lookahead=48 / rc=2pass / mbtree=1 / bitrate=7500 / ratetol=1.0 / qcomp=0.50 / qpmin=6 / qpmax=51 / qpstep=4 / cplxblur=20.0 / qblur=0.5 / vbv_maxrate=11250 / vbv_bufsize=15000 / nal_hrd=vbr / filler=0 / ip_ratio=1.40 / aq=1:1.00
    Default                     : Yes
    Forced                      : No

    Audio #1
    ID                          : 2
    Format                      : E-AC-3
    Format/Info                 : Enhanced AC-3
    Commercial name             : Dolby Digital Plus
    Codec ID                    : A_EAC3
    Duration                    : 24 min 13 s
    Bit rate mode               : Constant
    Bit rate                    : 128 kb/s
    Channel(s)                  : 2 channels
    Channel layout              : L R
    Sampling rate               : 48.0 kHz
    Frame rate                  : 31.250 FPS (1536 SPF)
    Compression mode            : Lossy
    Stream size                 : 22.2 MiB (2%)
    Language                    : Spanish
    Service kind                : Complete Main
    Default                     : Yes
    Forced                      : No

    Audio #2
    ID                          : 3
    Format                      : E-AC-3
    Format/Info                 : Enhanced AC-3
    Commercial name             : Dolby Digital Plus
    Codec ID                    : A_EAC3
    Duration                    : 24 min 13 s
    Bit rate mode               : Constant
    Bit rate                    : 128 kb/s
    Channel(s)                  : 2 channels
    Channel layout              : L R
    Sampling rate               : 48.0 kHz
    Frame rate                  : 31.250 FPS (1536 SPF)
    Compression mode            : Lossy
    Stream size                 : 22.2 MiB (2%)
    Language                    : English
    Service kind                : Complete Main
    Default                     : No
    Forced                      : No

    Text #1
    ID                          : 4
    Format                      : UTF-8
    Codec ID                    : S_TEXT/UTF8
    Codec ID/Info               : UTF-8 Plain Text
    Duration                    : 23 min 44 s
    Bit rate                    : 52 b/s
    Count of elements           : 266
    Stream size                 : 9.07 KiB (0%)
    Title                       : English
    Language                    : English
    Default                     : Yes
    Forced                      : Yes

    Text #2
    ID                          : 5
    Format                      : UTF-8
    Codec ID                    : S_TEXT/UTF8
    Codec ID/Info               : UTF-8 Plain Text
    Duration                    : 23 min 44 s
    Bit rate                    : 54 b/s
    Count of elements           : 275
    Stream size                 : 9.41 KiB (0%)
    Title                       : Spanish
    Language                    : Spanish
    Default                     : No
    Forced                      : No

  • Peso: 1.2 GB por Capitulo

Sinopsis

El protagonista, Baki Hanma, entrena enfocado en superar a su padre, Yujiro Hanma, el luchador más fuerte del mundo. Cinco de los presos más violentos y brutales, se reúnen para enfrentar a Baki. Su objetivo es probar la derrota. Su fuerza y habilidad inigualable, los han llevado a aburrirse de la vida misma, y ahora buscan a Baki con la esperanza de que pueda abrumarlos y aplastarlos por completo. En esta crisis, otros guerreros de artes marciales subterráneos se reúnen para luchar al lado de Baki: Kaoru Hanayama, Gouki Shibukawa, Retsu Kaioh y Doppo Orochi. ¡Inicia un enfrentamiento épico entre los condenados a muerte y Baki y sus amigos!

Ficha técnica

Video trailer de la película

Enlaces de descarga

Rip de Bluray

Descargar Baki (2018) Temporada 1 NF 1080p Español Latino




Aportes de DPeliculasHDmega la pass es:dpeliculashdmega.org Aportes de CinemaniaHD la pass es:cinemaniahdd.com

Películas relacionadas

  • The mule (2018) WEB-DL 1080p Latino

    2018
    The mule (2018) WEB-DL 1080p Latino

    0.0 1h 56m 2018

    A Earl Stone (Eastwood), un octogenario que está en quiebra, solo, y que se enfrenta a la ejecución...

    Director: Clint Eastwood

    Género: Crimen

    Actores: Victor Rasuk

  • Nace Una Estrella (2018) 4K UHD HDR Latino

    2018
    Nace Una Estrella (2018) 4K UHD HDR Latino

    0.0 2h 25m 2018

    Descargar Nace Una Estrella (2018) 4K UHD HDR Latino, Mega, Google Drive. Jackson Maine es una estrella...

    Director: Bradley Cooper

    Género: 4K HDR

    Actores: Willam Belli

  • FBI (2018) Temporada 1 1080p WEB-DL Latino

    2018
    FBI (2018) Temporada 1 1080p WEB-DL Latino

    0.0 0h 43m 2018

    Serie de TV (2018-). Drama vertiginoso sobre el funcionamiento interno de la oficina de Nueva York del...

    Director: Dick Wolf

    Género: Crimen

    Actores: Zeeko Zaki

Comentarios 0