Baki (2018) Primera Temporada [NF] WEB DL 1080p Latino

303 vistas
1 estrella2 estrellas3 estrellas4 estrellas5 estrellas (1 votos, promedio: 4,00 de 5)
Cargando…

Información de Baki (2018) Primera Temporada [NF] WEB DL 1080p Latino

Datos de la película

  • Calidad: WEBDL
  • Audio: Español Latino E-AC3 2.0 Netflix - Ingles E-AC3 2.0 Netflix
  • Subtitulos: Español Latino SRT- FORZADOS SRT
  • Resolución: 1920x1080p
  • Formato: MKV
  • Codec: H.264
  • Encoder: Dracarys
  • Mediainfo: Clic para Mostrar Datos Ver
  • Format                      : Matroska
    Format version              : Version 4
    File size                   : 1.29 GiB
    Duration                    : 24 min 13 s
    Overall bit rate mode       : Variable
    Overall bit rate            : 7 639 kb/s
    Movie name                  : BAKI S01E01
    Encoded date                : UTC 2019-02-10 03:13:49 / UTC 2018-12-12 01:26:21
    Writing application         : mkvmerge v11.0.0 ('Alive') 64bit
    Writing library             : libebml v1.3.4 + libmatroska v1.4.5 / Lavf58.0.0

    Video
    ID                          : 1
    Format                      : AVC
    Format/Info                 : Advanced Video Codec
    Format profile              : [email protected]
    Format settings             : CABAC / 3 Ref Frames
    Format settings, CABAC      : Yes
    Format settings, ReFrames   : 3 frames
    Codec ID                    : V_MPEG4/ISO/AVC
    Duration                    : 24 min 13 s
    Bit rate mode               : Variable
    Bit rate                    : 7 500 kb/s
    Maximum bit rate            : 11.2 Mb/s
    Width                       : 1 920 pixels
    Height                      : 1 080 pixels
    Display aspect ratio        : 16:9
    Frame rate mode             : Constant
    Frame rate                  : 23.976 (24000/1001) FPS
    Color space                 : YUV
    Chroma subsampling          : 4:2:0
    Bit depth                   : 8 bits
    Scan type                   : Progressive
    Bits/(Pixel*Frame)          : 0.151
    Stream size                 : 1.22 GiB (95%)
    Title                       : CinemaniaHDD
    Writing library             : x264 core 148 r2715 7e75228
    Encoding settings           : cabac=1 / ref=3 / deblock=1:0:0 / analyse=0x1:0x111 / me=umh / subme=10 / psy=1 / psy_rd=1.00:0.00 / mixed_ref=1 / me_range=24 / chroma_me=1 / trellis=2 / 8x8dct=0 / cqm=0 / deadzone=21,11 / fast_pskip=1 / chroma_qp_offset=-2 / threads=6 / lookahead_threads=1 / sliced_threads=0 / nr=0 / decimate=1 / interlaced=0 / bluray_compat=0 / stitchable=1 / constrained_intra=0 / bframes=2 / b_pyramid=0 / b_adapt=2 / b_bias=0 / direct=3 / weightb=1 / open_gop=0 / weightp=2 / keyint=48 / keyint_min=25 / scenecut=0 / intra_refresh=0 / rc_lookahead=48 / rc=2pass / mbtree=1 / bitrate=7500 / ratetol=1.0 / qcomp=0.50 / qpmin=6 / qpmax=51 / qpstep=4 / cplxblur=20.0 / qblur=0.5 / vbv_maxrate=11250 / vbv_bufsize=15000 / nal_hrd=vbr / filler=0 / ip_ratio=1.40 / aq=1:1.00
    Default                     : Yes
    Forced                      : No
    Statistics Tags Issue       : mkvmerge v11.0.0 ('Alive') 64bit 2019-02-10 03:13:49 / mkvmerge v11.0.0 ('Alive') 64bit 2019-02-10 03:13:49 / UTC 2018-12-12 01:26:21
    FromStats_BitRate           : 7381305
    FromStats_Duration          : 00:24:13.744000000
    FromStats_FrameCount        : 34855
    FromStats_StreamSize        : 1341316032

    Audio #1
    ID                          : 2
    Format                      : E-AC-3
    Format/Info                 : Enhanced AC-3
    Commercial name             : Dolby Digital Plus
    Codec ID                    : A_EAC3
    Duration                    : 24 min 13 s
    Bit rate mode               : Constant
    Bit rate                    : 128 kb/s
    Channel(s)                  : 2 channels
    Channel layout              : L R
    Sampling rate               : 48.0 kHz
    Frame rate                  : 31.250 FPS (1536 SPF)
    Compression mode            : Lossy
    Stream size                 : 22.2 MiB (2%)
    Title                       : Español latino [CinemaniaHDD]
    Language                    : Spanish
    Service kind                : Complete Main
    Default                     : Yes
    Forced                      : No
    Encoded date                : UTC 2018-12-12 01:26:22
    Statistics Tags Issue       : mkvmerge v11.0.0 ('Alive') 64bit 2019-02-10 03:13:49 / mkvmerge v11.0.0 ('Alive') 64bit 2019-02-10 03:13:49 / UTC 2018-12-12 01:26:21
    FromStats_BitRate           : 128000
    FromStats_Duration          : 00:24:13.856000000
    FromStats_FrameCount        : 45433
    FromStats_StreamSize        : 23261696

    Audio #2
    ID                          : 3
    Format                      : E-AC-3
    Format/Info                 : Enhanced AC-3
    Commercial name             : Dolby Digital Plus
    Codec ID                    : A_EAC3
    Duration                    : 24 min 13 s
    Bit rate mode               : Constant
    Bit rate                    : 128 kb/s
    Channel(s)                  : 2 channels
    Channel layout              : L R
    Sampling rate               : 48.0 kHz
    Frame rate                  : 31.250 FPS (1536 SPF)
    Compression mode            : Lossy
    Stream size                 : 22.2 MiB (2%)
    Title                       : Inglés [CinemaniaHDD]
    Language                    : English
    Service kind                : Complete Main
    Default                     : No
    Forced                      : No
    Encoded date                : UTC 2018-12-12 01:26:21
    Statistics Tags Issue       : mkvmerge v11.0.0 ('Alive') 64bit 2019-02-10 03:13:49 / mkvmerge v11.0.0 ('Alive') 64bit 2019-02-10 03:13:49 / UTC 2018-12-12 01:26:21
    FromStats_BitRate           : 128000
    FromStats_Duration          : 00:24:13.856000000
    FromStats_FrameCount        : 45433
    FromStats_StreamSize        : 23261696

    Text #1
    ID                          : 4
    Format                      : UTF-8
    Codec ID                    : S_TEXT/UTF8
    Codec ID/Info               : UTF-8 Plain Text
    Title                       : Español latino [CinemaniaHDD]
    Language                    : Spanish
    Default                     : No
    Forced                      : No
    Statistics Tags Issue       : mkvmerge v11.0.0 ('Alive') 64bit 2019-02-10 03:13:49 / mkvmerge v11.0.0 ('Alive') 64bit 2019-02-10 03:13:49 / UTC 2018-12-12 01:26:21
    FromStats_BitRate           : 54
    FromStats_Duration          : 00:23:44.965000000
    FromStats_FrameCount        : 275
    FromStats_StreamSize        : 9633

    Text #2
    ID                          : 5
    Format                      : UTF-8
    Codec ID                    : S_TEXT/UTF8
    Codec ID/Info               : UTF-8 Plain Text
    Title                       : Forzados [CinemaniaHDD]
    Language                    : Spanish
    Default                     : Yes
    Forced                      : Yes
    Statistics Tags Issue       : mkvmerge v11.0.0 ('Alive') 64bit 2019-02-10 03:13:49 / mkvmerge v11.0.0 ('Alive') 64bit 2019-02-10 03:13:49 / UTC 2018-12-12 01:26:21
    FromStats_BitRate           : 2
    FromStats_Duration          : 00:23:44.965000000
    FromStats_FrameCount        : 16
    FromStats_StreamSize        : 413

  • Peso: 1.00 GiB X Capitulo

Sinopsis

El protagonista, Baki Hanma, entrena enfocado en superar a su padre, Yujiro Hanma, el luchador más fuerte del mundo. Cinco de los presos más violentos y brutales, se reúnen para enfrentar a Baki. Su objetivo es probar la derrota. Su fuerza y habilidad inigualable, los han llevado a aburrirse de la vida misma, y ahora buscan a Baki con la esperanza de que pueda abrumarlos y aplastarlos por completo. En esta crisis, otros guerreros de artes marciales subterráneos se reúnen para luchar al lado de Baki: Kaoru Hanayama, Gouki Shibukawa, Retsu Kaioh y Doppo Orochi. ¡Inicia un enfrentamiento épico entre los condenados a muerte y Baki y sus amigos!

Ficha técnica

Video trailer de la película

Enlaces de descarga

Rip de Bluray

Descargar Baki (2018) Primera Temporada [NF] WEB DL 1080p Latino




Aportes de DPeliculasHDmega la pass es:dpeliculashdmega.org Aportes de CinemaniaHD la pass es:cinemaniahdd.com

Películas relacionadas

  • Native Son (2019) AMZN WEB-DL 1080p Latino

    2019
    Native Son (2019) AMZN WEB-DL 1080p Latino

    0.0 1h 50m 2019

    Bigger “Big” Thomas (Ashton Sanders) es un joven afroamericano que vive con su madre y hermanos en...

    Director: Rashid Johnson

    Género: Drama

    Actores: Stephen Henderson

  • Man On A Ledge (2012) Full (Open Matte) 1080P Latino

    2012
    Man On A Ledge (2012) Full (Open Matte) 1080P Latino

    0.0 1h 42m 2012

    Nick Cassidy (Sam Worthington), un antiguo agente de policía, se escapa de la cárcel y se dirige al...

    Director: Melissa Kalbfus

    Género: Acción

    Actores: William Sadler

  • Dragged Across Concrete (2018) WEB-DL Latino

    2019
    Dragged Across Concrete (2018) WEB-DL Latino

    0.0 2h 39m 2019

    Las películas de S. Craig Zahler se cuecen a fuego lento. Sin embargo, su carrera es fulgurante: ya...

    Director: Sam Harris

    Género: Acción

    Actores: Vivian Ng

  • Miss Bala (2019) WEB-DL 1080p Latino

    2019
    Miss Bala (2019) WEB-DL 1080p Latino

    0.0 1h 44m 2019

    La ganadora de un concurso de belleza se ve obligada a trabajar para un jefe del crimen después de ser...

    Director: Catherine Hardwicke

    Género: Acción

    Actores: Roberto Sosa

  • Amigos por Siempre (2019) WEB-DL 1080p Latino

    2019
    Amigos por Siempre (2019) WEB-DL 1080p Latino

    0.0 2h 3m 2019

    Remake norteamericano del gran éxito del cine francés "Intocable" (2011), que aborda la relación que...

    Director: Neil Burger

    Género: Comedia

    Actores: Ursula Triplett

Comentarios 1
  • neithan - 15 febrero, 2019

    ya que netflix esta con esto del anime, ojala pronto animen tenjou tenge que se que quedo en lo mejor.