×

¿Problemas para descargar con Mozilla, EDGE? Deshabilita la opción "Abrir vinculos en una pestaña nueva" tal como lo muestra ésta imagen.

Bajo sospecha (2019) REMUX 1080p Latino

214 vistas

Información de Bajo sospecha (2019) REMUX 1080p Latino

Datos de la película

  • Calidad: Full 1080p
  • Audio: Se especifica abajo de la Sinopsis
  • Subtitulos: Español Latino SRT- FORZADOS SRT
  • Resolución: 1920x1080p
  • Formato: MKV
  • Codec: H.264
  • Encoder: Melkor
  • Mediainfo: Clic para Mostrar Datos Ver
  • Bajo Sospecha (2019) REMUX 1080p Latino.mkv
    Format                      : Matroska
    Format version              : Version 4
    File size                   : 27.2 GiB
    Duration                    : 1 h 44 min
    Overall bit rate mode       : Variable
    Overall bit rate            : 37.2 Mb/s
    Movie name                  : Above Suspicion (2019) CinemaniaHDD.Net
    Encoded date                : UTC 2021-01-24 08:48:39
    Writing application         : mkvmerge v51.0.0 ('I Wish') 64-bit
    Writing library             : libebml v1.4.0 + libmatroska v1.6.2
    Attachments                 : CINEMANIAHD.png

    Video
    ID                          : 1
    Format                      : AVC
    Format/Info                 : Advanced Video Codec
    Format profile              : High@L4.1
    Format settings             : CABAC / 4 Ref Frames
    Format settings, CABAC      : Yes
    Format settings, Reference  : 4 frames
    Format settings, GOP        : M=1, N=12
    Codec ID                    : V_MPEG4/ISO/AVC
    Duration                    : 1 h 44 min
    Bit rate mode               : Variable
    Bit rate                    : 33.7 Mb/s
    Maximum bit rate            : 37.0 Mb/s
    Width                       : 1 920 pixels
    Height                      : 1 080 pixels
    Display aspect ratio        : 16:9
    Frame rate mode             : Constant
    Frame rate                  : 23.976 (24000/1001) FPS
    Color space                 : YUV
    Chroma subsampling          : 4:2:0
    Bit depth                   : 8 bits
    Scan type                   : Progressive
    Bits/(Pixel*Frame)          : 0.678
    Stream size                 : 24.7 GiB (91%)
    Title                       : REMUX HD1080p [CinemaniaHDD]
    Language                    : English
    Default                     : Yes
    Forced                      : No

    Audio #1
    ID                          : 2
    Format                      : AC-3
    Format/Info                 : Audio Coding 3
    Commercial name             : Dolby Digital
    Codec ID                    : A_AC3
    Duration                    : 1 h 44 min
    Bit rate mode               : Constant
    Bit rate                    : 256 kb/s
    Channel(s)                  : 2 channels
    Channel layout              : L R
    Sampling rate               : 48.0 kHz
    Frame rate                  : 31.250 FPS (1536 SPF)
    Compression mode            : Lossy
    Stream size                 : 192 MiB (1%)
    Title                       : Español Latino [CinemaniaHDD]
    Language                    : Spanish
    Service kind                : Complete Main
    Default                     : Yes
    Forced                      : No

    Audio #2
    ID                          : 3
    Format                      : DTS XLL
    Format/Info                 : Digital Theater Systems
    Commercial name             : DTS-HD Master Audio
    Codec ID                    : A_DTS
    Duration                    : 1 h 44 min
    Bit rate mode               : Variable
    Bit rate                    : 3 226 kb/s
    Channel(s)                  : 6 channels
    Channel layout              : C L R Ls Rs LFE
    Sampling rate               : 48.0 kHz
    Frame rate                  : 93.750 FPS (512 SPF)
    Bit depth                   : 24 bits
    Compression mode            : Lossless
    Stream size                 : 2.36 GiB (9%)
    Title                       : Ingles [CinemaniaHDD]
    Language                    : English
    Default                     : No
    Forced                      : No

    Text #1
    ID                          : 4
    Format                      : UTF-8
    Codec ID                    : S_TEXT/UTF8
    Codec ID/Info               : UTF-8 Plain Text
    Duration                    : 1 h 38 min
    Bit rate                    : 0 b/s
    Count of elements           : 15
    Stream size                 : 705 Bytes (0%)
    Title                       : Forzados-SRT [CinemaniaHDD]
    Language                    : Spanish
    Default                     : Yes
    Forced                      : No

    Text #2
    ID                          : 5
    Format                      : UTF-8
    Codec ID                    : S_TEXT/UTF8
    Codec ID/Info               : UTF-8 Plain Text
    Duration                    : 1 h 39 min
    Bit rate                    : 70 b/s
    Count of elements           : 1228
    Stream size                 : 51.2 KiB (0%)
    Title                       : Español-SRT [CinemaniaHDD]
    Language                    : Spanish
    Default                     : No
    Forced                      : No

    Text #3
    ID                          : 6
    Format                      : UTF-8
    Codec ID                    : S_TEXT/UTF8
    Codec ID/Info               : UTF-8 Plain Text
    Duration                    : 1 h 37 min
    Bit rate                    : 56 b/s
    Count of elements           : 1158
    Stream size                 : 40.2 KiB (0%)
    Title                       : Ingles-SRT [CinemaniaHDD]
    Language                    : English
    Default                     : No
    Forced                      : No

    Menu
    00:00:00.000                : :Chapter 01
    00:10:19.244                : :Chapter 02
    00:24:40.896                : :Chapter 03
    00:35:03.768                : :Chapter 04
    00:45:35.983                : :Chapter 05
    00:55:48.178                : :Chapter 06
    01:07:36.135                : :Chapter 07
    01:19:09.703                : :Chapter 08
    01:31:04.000                : :Chapter 09

  • Peso: 27.2 GiB

Sinopsis

Descargar Bajo sospecha (2019) REMUX 1080p Latino. La escalofriante historia de un chico, recién casado, que trabaja en el FBI y es asignado a un pueblo montañoso de los Apalaches en Kentucky. Allí se involucra en una aventura amorosa con una mujer local que se convierte en su informante estrella. Ella ve en él su medio de escape; en cambio, es un boleto al desastre para los dos.

Español Latino AC3 2.0 WebDL – Ingles DTS-HD 5.1 Bluray

Ficha técnica

Video trailer de la película

Enlaces de descarga

Rip de Bluray

Descargar Bajo sospecha (2019) REMUX 1080p Latino




Aportes de DPeliculasHDmega la pass es:dpeliculashdmega.org Aportes de CinemaniaHD la pass es:cinemaniahdd.com
Guardado en : Acción , Crimen , Remux , Suspenso

Películas relacionadas

  • Resurrección (2022) AMZN WEB-DL 1080p Latino

    Resurrección (2022) AMZN WEB-DL 1080p Latino

    2022
    Resurrección (2022) AMZN WEB-DL 1080p Latino

    1h 43m 2022

    Descargar Resurrección (2022) AMZN Web-DL 1080p Latino. La vida cuidadosamente construida de una mujer...

    Director: Michael Kefeyalew

    Género: Drama

    Actores: Zarra Kaahn

  • Walker (2022) Temporada 3 WEB-DL 1080p Latino

    Walker (2022) Temporada 3 WEB-DL 1080p Latino

    2021
    Walker (2022) Temporada 3 WEB-DL 1080p Latino

    0h 45m 2021

    Reboot de la serie de 1993 que se centra en Walker cuando regresa de años de incógnito. Viudo y...

    Director: Anna Fricke

    Género: Action & Adventure

    Actores: Violet Brinson

  • El Lobo Y El Leon (2021) REMUX 1080p Latino

    El Lobo Y El Leon (2021) REMUX 1080p Latino

    2021
    El Lobo Y El Leon (2021) REMUX 1080p Latino

    1h 39m 2021

    Descargar El Lobo Y El Leon (2021) REMUX 1080p Latino. A la muerte de su abuelo, Alma, un joven pianista...

    Director: Gilles de Maistre

    Género: Aventura

    Actores: Victor Cornfoot

  • Plan De Estudios (2022) NF WEB-DL 1080p Latino

    Plan De Estudios (2022) NF WEB-DL 1080p Latino

    2022
    Plan De Estudios (2022) NF WEB-DL 1080p Latino

    1h 41m 2022

    Un expolicía empieza a trabajar en el instituto en el que su difunto mejor amigo daba clase para enfrentarse...

    Director: Daniel Markowicz

    Género: Crimen

    Actores: Zuzanna Galewicz

  • La Mujer Rey (2022) WEB-DL 1080p Latino

    La Mujer Rey (2022) WEB-DL 1080p Latino

    2022
    La Mujer Rey (2022) WEB-DL 1080p Latino

    2h 15m 2022

    Descargar La Mujer Rey (2022) WEB-DL 1080p Latino. Una epopeya histórica inspirada en los hechos reales...

    Director: Gina Prince-Bythewood

    Género: Acción

    Actores: Wanda Banda

descargar Bajo sospecha (2019) REMUX 1080p Latino Full 1080p 1080p gratis, Bajo sospecha (2019) REMUX 1080p Latino Full 1080p mega 1 link, Bajo sospecha (2019) REMUX 1080p Latino Full 1080p pelicula completa, descargar Bajo sospecha (2019) REMUX 1080p Latino Full 1080p gratis en mega.

Bajo sospecha (2019) REMUX 1080p Latino pelicula full hd, Bajo sospecha (2019) REMUX 1080p Latino mega latino, Bajo sospecha (2019) REMUX 1080p Latino 4k latino, Bajo sospecha (2019) REMUX 1080p Latino pelicula completa, Bajo sospecha (2019) REMUX 1080p Latino descargar gratis, descargar Bajo sospecha (2019) REMUX 1080p Latino pelicula latino, Bajo sospecha (2019) REMUX 1080p Latino 1 link mega, Bajo sospecha (2019) REMUX 1080p Latino 1 link google drive, Bajo sospecha (2019) REMUX 1080p Latino hd 1080p latino.
Comentarios 0