Bajo la sombra (2016) 1080p Latino

996 vistas
1 estrella2 estrellas3 estrellas4 estrellas5 estrellas (Ninguna valoración todavía)
Cargando…

Información de Bajo la sombra (2016) 1080p Latino

Datos de la película

  • Calidad: 1080p
  • Audio: Se especifica abajo de la Sinopsis
  • Subtitulos: Español Latino PGS - Ingles PGS
  • Resolución: 1920X804
  • Formato: MKV
  • Codec: H.264
  • Encoder: Dpelis
  • Mediainfo: Clic para Mostrar Datos Ver
  • Format                                   : Matroska
    Format version                           : Version 4 / Version 2
    File size                                : 2.48 GiB
    Duration                                 : 1 h 24 min
    Overall bit rate                         : 4 227 kb/s
    Movie name                               : dpeliculashdmega.org
    Encoded date                             : UTC 2017-11-09 01:19:07 / UTC 2017-11-08T23:32:56Z
    Writing application                      : mkvmerge v15.0.0 ('Duel with the Devil') 64-bit
    Writing library                          : libebml v1.3.5 + libmatroska v1.4.5 / Lavf57.7.2

    Video
    ID                                       : 1
    Format                                   : AVC
    Format/Info                              : Advanced Video Codec
    Format profile                           : [email protected]
    Format settings                          : CABAC / 5 Ref Frames
    Format settings, CABAC                   : Yes
    Format settings, RefFrames               : 5 frames
    Codec ID                                 : V_MPEG4/ISO/AVC
    Duration                                 : 1 h 24 min
    Bit rate                                 : 3 500 kb/s
    Width                                    : 1 920 pixels
    Height                                   : 804 pixels
    Display aspect ratio                     : 2.40:1
    Frame rate mode                          : Constant
    Frame rate                               : 24.000 FPS
    Color space                              : YUV
    Chroma subsampling                       : 4:2:0
    Bit depth                                : 8 bits
    Scan type                                : Progressive
    Bits/(Pixel*Frame)                       : 0.094
    Stream size                              : 1.98 GiB (80%)
    Title                                    : Bajo la sombra (2016) 1080p Latino
    Writing library                          : x264 core 148 r2708 86b7198
    Encoding settings                        : cabac=1 / ref=5 / deblock=1:0:0 / analyse=0x3:0x113 / me=umh / subme=8 / psy=1 / psy_rd=1.00:0.00 / mixed_ref=1 / me_range=16 / chroma_me=1 / trellis=1 / 8x8dct=1 / cqm=0 / deadzone=21,11 / fast_pskip=1 / chroma_qp_offset=-2 / threads=25 / lookahead_threads=4 / sliced_threads=0 / nr=0 / decimate=1 / interlaced=0 / bluray_compat=0 / constrained_intra=0 / bframes=3 / b_pyramid=2 / b_adapt=2 / b_bias=0 / direct=3 / weightb=1 / open_gop=0 / weightp=2 / keyint=240 / keyint_min=24 / scenecut=40 / intra_refresh=0 / rc_lookahead=50 / rc=abr / mbtree=1 / bitrate=3500 / ratetol=1.0 / qcomp=0.60 / qpmin=0 / qpmax=69 / qpstep=4 / vbv_maxrate=62500 / vbv_bufsize=78125 / nal_hrd=none / filler=0 / ip_ratio=1.40 / aq=1:1.00
    Language                                 : English
    Default                                  : Yes
    Forced                                   : No
    Color range                              : Limited
    Color primaries                          : BT.709
    Transfer characteristics                 : BT.709
    Matrix coefficients                      : BT.709
    Statistics Tags Issue                    : mkvmerge v15.0.0 ('Duel with the Devil') 64-bit 2017-11-09 01:19:07 / mkvmerge v15.0.0 ('Duel with the Devil') 64-bit 2017-11-09 01:19:07 / UTC 2017-11-08T23:32:56Z
    FromStats_BitRate                        : 3460873
    FromStats_Duration                       : 01:23:40.334000000
    FromStats_FrameCount                     : 120488
    FromStats_StreamSize                     : 2171842671

    Audio #1
    ID                                       : 2
    Format                                   : AC-3
    Format/Info                              : Audio Coding 3
    Format settings, Endianness              : Big
    Codec ID                                 : A_AC3
    Duration                                 : 1 h 24 min
    Bit rate mode                            : Constant
    Bit rate                                 : 384 kb/s
    Channel(s)                               : 6 channels
    Channel positions                        : Front: L C R, Side: L R, LFE
    Sampling rate                            : 48.0 kHz
    Frame rate                               : 31.250 FPS (1536 SPF)
    Bit depth                                : 16 bits
    Compression mode                         : Lossy
    Delay relative to video                  : -5 ms
    Stream size                              : 231 MiB (9%)
    Title                                    : Latino-AC3
    Language                                 : Spanish
    Service kind                             : Complete Main
    Default                                  : Yes
    Forced                                   : No
    Statistics Tags Issue                    : mkvmerge v15.0.0 ('Duel with the Devil') 64-bit 2017-11-09 01:19:07 / mkvmerge v15.0.0 ('Duel with the Devil') 64-bit 2017-11-09 01:19:07 / UTC 2017-11-08T23:32:56Z
    FromStats_BitRate                        : 384000
    FromStats_Duration                       : 01:24:02.688000000
    FromStats_FrameCount                     : 157584
    FromStats_StreamSize                     : 242049024

    Audio #2
    ID                                       : 3
    Format                                   : AC-3
    Format/Info                              : Audio Coding 3
    Format settings, Endianness              : Big
    Codec ID                                 : A_AC3
    Duration                                 : 1 h 24 min
    Bit rate mode                            : Constant
    Bit rate                                 : 384 kb/s
    Channel(s)                               : 6 channels
    Channel positions                        : Front: L C R, Side: L R, LFE
    Sampling rate                            : 48.0 kHz
    Frame rate                               : 31.250 FPS (1536 SPF)
    Bit depth                                : 16 bits
    Compression mode                         : Lossy
    Delay relative to video                  : -5 ms
    Stream size                              : 231 MiB (9%)
    Title                                    : Persa-AC3
    Language                                 : Persian
    Service kind                             : Complete Main
    Default                                  : No
    Forced                                   : No
    Statistics Tags Issue                    : mkvmerge v15.0.0 ('Duel with the Devil') 64-bit 2017-11-09 01:19:07 / mkvmerge v15.0.0 ('Duel with the Devil') 64-bit 2017-11-09 01:19:07 / UTC 2017-11-08T23:32:56Z
    FromStats_BitRate                        : 384000
    FromStats_Duration                       : 01:23:40.384000000
    FromStats_FrameCount                     : 156887
    FromStats_StreamSize                     : 240978432

    Text #1
    ID                                       : 4
    Format                                   : PGS
    Muxing mode                              : zlib
    Codec ID                                 : S_HDMV/PGS
    Codec ID/Info                            : Picture based subtitle format used on BDs/HD-DVDs
    Title                                    : PGS
    Language                                 : English
    Default                                  : No
    Forced                                   : No
    Statistics Tags Issue                    : mkvmerge v15.0.0 ('Duel with the Devil') 64-bit 2017-11-09 01:19:07 / mkvmerge v15.0.0 ('Duel with the Devil') 64-bit 2017-11-09 01:19:07 / UTC 2017-11-08T23:32:56Z
    FromStats_BitRate                        : 21466
    FromStats_Duration                       : 01:17:27.375000000
    FromStats_FrameCount                     : 1304
    FromStats_StreamSize                     : 12470351

    Text #2
    ID                                       : 5
    Format                                   : PGS
    Muxing mode                              : zlib
    Codec ID                                 : S_HDMV/PGS
    Codec ID/Info                            : Picture based subtitle format used on BDs/HD-DVDs
    Title                                    : PGS
    Language                                 : Spanish
    Default                                  : No
    Forced                                   : No
    Statistics Tags Issue                    : mkvmerge v15.0.0 ('Duel with the Devil') 64-bit 2017-11-09 01:19:07 / mkvmerge v15.0.0 ('Duel with the Devil') 64-bit 2017-11-09 01:19:07 / UTC 2017-11-08T23:32:56Z
    FromStats_BitRate                        : 19056
    FromStats_Duration                       : 01:19:14.916000000
    FromStats_FrameCount                     : 1438
    FromStats_StreamSize                     : 11326802

    Menu
    00:00:00.000                             : :Chapter 1
    00:07:12.667                             : :Chapter 2
    00:13:23.000                             : :Chapter 3
    00:19:54.750                             : :Chapter 4
    00:29:13.750                             : :Chapter 5
    00:34:27.208                             : :Chapter 6
    00:41:10.750                             : :Chapter 7
    00:49:25.583                             : :Chapter 8
    00:55:07.125                             : :Chapter 9
    01:02:13.833                             : :Chapter 10
    01:08:54.875                             : :Chapter 11
    01:20:15.667                             : :Chapter 12
    01:23:39.750                             : :Chapter 13

  • Peso: 2.48 GiB

Sinopsis

Mientras una madre y una hija intentan sobrellevar el terror del Teherán islamista de los años 80, un ser misterioso empieza a aparecer en su casa.

 

Audio: Latino AC3 5.1 Bluray – Persa AC3 5.1 BluRay 

Ficha técnica

  • Titulo original: Under the Shadow
  • Fecha de lanzamiento: 07-10-2016 (Iran, Jordan, Qatar, United Kingdom)
  • Director: Babak Anvari
  • Género: Terror
  • Puntuación: 0.0 0 votos
  • Duración:
    1 h 24 min

Video trailer de la película

Enlaces de descarga

Rip de Bluray

Descargar Bajo la sombra (2016) 1080p Latino




Aportes de DPeliculasHDmega la pass es:dpeliculashdmega.org Aportes de CinemaniaHD la pass es:cinemaniahdd.com
Guardado en : Terror

Películas relacionadas

  • Overlord (2018) Full HD 1080p Latino

    2018
    Overlord (2018) Full HD 1080p Latino

    0.0 1h 50m 2018

    Segunda Guerra Mundial. En la víspera del Día D, dos paracaidistas estadounidenses tienen una misión...

    Director: Julius Avery

    Género: Acción

    Actores: Wyatt Russell

  • Megalodón (2018) 4K UHD HDR Latino

    2018
    Megalodón (2018) 4K UHD HDR Latino

    4.5 1h 53m 2018

    Descargar Megalodón (2018) 4K UHD HDR Latino, Mega, Google Drive. Un sumergible de aguas profundas que...

    Director: Monique Knight

    Género: 4K HDR

    Actores: Yoson An

  • The ABCs of Death 2 (2014) Full 1080p Subtitulado

    2014
    The ABCs of Death 2 (2014) Full 1080p Subtitulado

    5.0 2h 5m 2014

    Secuela de la antología de cortometrajes de terror realizados por 26 directores diferentes. Es bien...

    Director: Vincenzo Natali

    Género: FULL 1080p Plateadas

    Actores: Victoria Broom

  • The ABCs of Death (2012) Full 1080p Subtitulado

    2013
    The ABCs of Death (2012) Full 1080p Subtitulado

    5.0 2h 3m 2013

    26 letras. 26 directores. 26 maneras de morir. La idea no puede ser más simple: a cada cineasta se la...

    Director: Yudai Yamaguchi

    Género: FULL 1080p Plateadas

    Actores: Yoshio Komatsu

  • Evil Nanny (2017) 1080p WEB-DL Latino

    2016
    Evil Nanny (2017) 1080p WEB-DL Latino

    3.0 1h 30m 2016

    Cuando Fay vuelve al trabajo tras su baja de maternidad, ella y su marido deciden contratar a Jen, una...

    Director: Jared Cohn

    Género: Drama

    Actores: Stephen Barrington

Comentarios 0