×

¿Problemas para descargar con Mozilla, EDGE? Deshabilita la opción "Abrir vinculos en una pestaña nueva" tal como lo muestra ésta imagen.

Bajo el mismo techo (2019) REMUX 1080p Castellano

613 vistas

Información de Bajo el mismo techo (2019) REMUX 1080p Castellano

bajo el mismo techo 54202 poster

Datos de la película

  • Calidad: Full 1080p
  • Audio: Español DTS 5.1 BLURAY
  • Subtitulos: No
  • Resolución: 1920x1080p
  • Formato: MKV
  • Codec: H.264
  • Encoder: CinefiloCool
  • Mediainfo: Clic para Mostrar Datos Ver
  • Bajo el mismo techo (2019) REMUX 1080p Castellano.mkv
    Format                      : Matroska
    Format version              : Version 4
    File size                   : 21.6 GiB
    Duration                    : 1 h 37 min
    Overall bit rate mode       : Variable
    Overall bit rate            : 31.7 Mb/s
    Movie name                  : CinemaniaHDD.Net
    Encoded date                : UTC 2019-06-17 18:38:32
    Writing application         : mkvmerge v30.1.0 ('Forever And More') 64-bit
    Writing library             : libebml v1.3.6 + libmatroska v1.4.9
    Attachments                 : CINEMANIAHD.png

    Video
    ID                          : 1
    Format                      : AVC
    Format/Info                 : Advanced Video Codec
    Format profile              : High@L4.1
    Format settings             : CABAC / 4 Ref Frames
    Format settings, CABAC      : Yes
    Format settings, ReFrames   : 4 frames
    Codec ID                    : V_MPEG4/ISO/AVC
    Duration                    : 1 h 37 min
    Bit rate mode               : Variable
    Bit rate                    : 28.0 Mb/s
    Maximum bit rate            : 36.0 Mb/s
    Width                       : 1 920 pixels
    Height                      : 1 080 pixels
    Display aspect ratio        : 16:9
    Frame rate mode             : Constant
    Frame rate                  : 24.000 FPS
    Standard                    : NTSC
    Color space                 : YUV
    Chroma subsampling          : 4:2:0
    Bit depth                   : 8 bits
    Scan type                   : Progressive
    Bits/(Pixel*Frame)          : 0.562
    Stream size                 : 19.1 GiB (88%)
    Title                       : Full HD1080p [REMUX]
    Default                     : Yes
    Forced                      : No
    Color range                 : Limited
    Color primaries             : BT.709
    Transfer characteristics    : BT.709
    Matrix coefficients         : BT.709

    Audio
    ID                          : 2
    Format                      : DTS XLL
    Format/Info                 : Digital Theater Systems
    Commercial name             : DTS-HD Master Audio
    Codec ID                    : A_DTS
    Duration                    : 1 h 37 min
    Bit rate mode               : Variable
    Bit rate                    : 3 717 kb/s
    Channel(s)                  : 6 channels
    Channel layout              : C L R Ls Rs LFE
    Sampling rate               : 48.0 kHz
    Frame rate                  : 93.750 FPS (512 SPF)
    Bit depth                   : 24 bits
    Compression mode            : Lossless
    Stream size                 : 2.53 GiB (12%)
    Title                       : DTS-HD_5.1_Bluray_Esp
    Language                    : Spanish
    Default                     : Yes
    Forced                      : Yes

    Menu
    00:00:00.000                : en:00:00:00.000
    00:08:58.167                : en:00:08:58.167
    00:13:37.083                : en:00:13:37.083
    00:20:54.917                : en:00:20:54.917
    00:26:53.500                : en:00:26:53.500
    00:32:23.667                : en:00:32:23.667
    00:39:45.375                : en:00:39:45.375
    00:46:43.167                : en:00:46:43.167
    00:54:03.708                : en:00:54:03.708
    01:00:36.208                : en:01:00:36.208
    01:07:35.000                : en:01:07:35.000
    01:14:30.542                : en:01:14:30.542

  • Peso: 21.6 GiB

Sinopsis

Descargar Bajo el mismo techo (2019) REMUX 1080p Castellano. Los dos miembros de un matrimonio, tras divorciarse, tendrán que seguir viviendo bajo el mismo techo al no encontrar comprador de su casa de casados y no tener ninguno de ellos dinero suficiente para irse a vivir a otro sitio.

Ficha técnica

Video trailer de la película

Enlaces de descarga

Rip de Bluray

Descargar Bajo el mismo techo (2019) REMUX 1080p Castellano




Aportes de DPeliculasHDmega la pass es:dpeliculashdmega.org Aportes de CinemaniaHD la pass es:cinemaniahdd.com
Guardado en : Castellano , Comedia , Remux

Películas relacionadas

descargar Bajo el mismo techo (2019) REMUX 1080p Castellano Full 1080p 1080p gratis, Bajo el mismo techo (2019) REMUX 1080p Castellano Full 1080p mega 1 link, Bajo el mismo techo (2019) REMUX 1080p Castellano Full 1080p pelicula completa, descargar Bajo el mismo techo (2019) REMUX 1080p Castellano Full 1080p gratis en mega.

Bajo el mismo techo (2019) REMUX 1080p Castellano pelicula full hd, Bajo el mismo techo (2019) REMUX 1080p Castellano mega latino, Bajo el mismo techo (2019) REMUX 1080p Castellano 4k latino, Bajo el mismo techo (2019) REMUX 1080p Castellano pelicula completa, Bajo el mismo techo (2019) REMUX 1080p Castellano descargar gratis, descargar Bajo el mismo techo (2019) REMUX 1080p Castellano pelicula latino, Bajo el mismo techo (2019) REMUX 1080p Castellano 1 link mega, Bajo el mismo techo (2019) REMUX 1080p Castellano 1 link google drive, Bajo el mismo techo (2019) REMUX 1080p Castellano hd 1080p latino.
Comentarios 0