×

¿Problemas para descargar con Mozilla, EDGE? Deshabilita la opción "Abrir vinculos en una pestaña nueva" tal como lo muestra ésta imagen.

Bajo el mismo techo (2019) Full HD 1080p Castellano

1.259 vistas

Información de Bajo el mismo techo (2019) Full HD 1080p Castellano

bajo el mismo techo 54190 poster

Datos de la película

  • Calidad: Full 1080p
  • Audio: Español DTS 5.1 BLURAY
  • Subtitulos: No
  • Resolución: 1920x1080p
  • Formato: MKV
  • Codec: H.264
  • Encoder: CinefiloCool
  • Mediainfo: Clic para Mostrar Datos Ver
  • Bajo el mismo techo (2019) Full HD 1080p Castellano(PLACEBO).mkv
    Format                      : Matroska
    Format version              : Version 4
    File size                   : 4.76 GiB
    Duration                    : 1 h 37 min
    Overall bit rate            : 6 986 kb/s
    Movie name                  : CinemaniaHDD.Net
    Encoded date                : UTC 2019-06-17 20:08:22
    Writing application         : mkvmerge v30.1.0 ('Forever And More') 64-bit
    Writing library             : libebml v1.3.6 + libmatroska v1.4.9
    Attachments                 : CINEMANIAHD.png

    Video
    ID                          : 1
    Format                      : AVC
    Format/Info                 : Advanced Video Codec
    Format profile              : High@L4.1
    Format settings             : CABAC / 4 Ref Frames
    Format settings, CABAC      : Yes
    Format settings, ReFrames   : 4 frames
    Codec ID                    : V_MPEG4/ISO/AVC
    Duration                    : 1 h 37 min
    Bit rate                    : 5 475 kb/s
    Width                       : 1 920 pixels
    Height                      : 1 080 pixels
    Display aspect ratio        : 16:9
    Frame rate mode             : Constant
    Frame rate                  : 24.000 FPS
    Color space                 : YUV
    Chroma subsampling          : 4:2:0
    Bit depth                   : 8 bits
    Scan type                   : Progressive
    Bits/(Pixel*Frame)          : 0.110
    Stream size                 : 3.73 GiB (78%)
    Title                       : Full HD1080p [Bluray]
    Writing library             : x264 core 157 r2935 545de2f
    Encoding settings           : cabac=1 / ref=4 / deblock=1:0:0 / analyse=0x3:0x133 / me=tesa / subme=11 / psy=1 / psy_rd=1.00:0.00 / mixed_ref=1 / me_range=24 / chroma_me=1 / trellis=2 / 8x8dct=1 / cqm=0 / deadzone=21,11 / fast_pskip=0 / chroma_qp_offset=-2 / threads=34 / lookahead_threads=8 / sliced_threads=0 / nr=0 / decimate=1 / interlaced=0 / bluray_compat=0 / constrained_intra=0 / bframes=16 / b_pyramid=2 / b_adapt=2 / b_bias=0 / direct=3 / weightb=1 / open_gop=0 / weightp=2 / keyint=240 / keyint_min=24 / scenecut=40 / intra_refresh=0 / rc_lookahead=60 / rc=crf / mbtree=1 / crf=20.0 / qcomp=0.60 / qpmin=0 / qpmax=69 / qpstep=4 / vbv_maxrate=62500 / vbv_bufsize=78125 / crf_max=0.0 / nal_hrd=none / filler=0 / ip_ratio=1.40 / aq=1:1.00
    Default                     : Yes
    Forced                      : No
    Color range                 : Limited
    Color primaries             : BT.709
    Transfer characteristics    : BT.709
    Matrix coefficients         : BT.709

    Audio
    ID                          : 2
    Format                      : DTS
    Format/Info                 : Digital Theater Systems
    Codec ID                    : A_DTS
    Duration                    : 1 h 37 min
    Bit rate mode               : Constant
    Bit rate                    : 1 509 kb/s
    Channel(s)                  : 6 channels
    Channel layout              : C L R Ls Rs LFE
    Sampling rate               : 48.0 kHz
    Frame rate                  : 93.750 FPS (512 SPF)
    Bit depth                   : 24 bits
    Compression mode            : Lossy
    Stream size                 : 1.03 GiB (22%)
    Title                       : DTS_5.1_Bluray_Cast
    Language                    : Spanish
    Default                     : Yes
    Forced                      : Yes

    Menu
    00:00:00.000                : :00:00:00.000
    00:08:58.208                : :00:08:58.167
    00:13:37.125                : :00:13:37.083
    00:20:55.000                : :00:20:54.917
    00:26:53.583                : :00:26:53.500
    00:32:23.708                : :00:32:23.667
    00:39:45.417                : :00:39:45.375
    00:46:43.250                : :00:46:43.167
    00:54:03.750                : :00:54:03.708
    01:00:36.208                : :01:00:36.208
    01:07:35.042                : :01:07:35.000
    01:14:30.625                : :01:14:30.542

  • Peso: 4.76 GiB

Sinopsis

Descargar Bajo el mismo techo (2019) Full HD 1080p Castellano, Mega, Google Drive. Los dos miembros de un matrimonio, tras divorciarse, tendrán que seguir viviendo bajo el mismo techo al no encontrar comprador de su casa de casados y no tener ninguno de ellos dinero suficiente para irse a vivir a otro sitio.

Ficha técnica

Video trailer de la película

Enlaces de descarga

Rip de Bluray

Descargar Bajo el mismo techo (2019) Full HD 1080p Castellano




Aportes de DPeliculasHDmega la pass es:dpeliculashdmega.org Aportes de CinemaniaHD la pass es:cinemaniahdd.com

Películas relacionadas

descargar Bajo el mismo techo (2019) Full HD 1080p Castellano Full 1080p 1080p gratis, Bajo el mismo techo (2019) Full HD 1080p Castellano Full 1080p mega 1 link, Bajo el mismo techo (2019) Full HD 1080p Castellano Full 1080p pelicula completa, descargar Bajo el mismo techo (2019) Full HD 1080p Castellano Full 1080p gratis en mega.

Bajo el mismo techo (2019) Full HD 1080p Castellano pelicula full hd, Bajo el mismo techo (2019) Full HD 1080p Castellano mega latino, Bajo el mismo techo (2019) Full HD 1080p Castellano 4k latino, Bajo el mismo techo (2019) Full HD 1080p Castellano pelicula completa, Bajo el mismo techo (2019) Full HD 1080p Castellano descargar gratis, descargar Bajo el mismo techo (2019) Full HD 1080p Castellano pelicula latino, Bajo el mismo techo (2019) Full HD 1080p Castellano 1 link mega, Bajo el mismo techo (2019) Full HD 1080p Castellano 1 link google drive, Bajo el mismo techo (2019) Full HD 1080p Castellano hd 1080p latino.
Comentarios 0