×

¿Problemas para descargar con Mozilla, EDGE? Deshabilita la opción "Abrir vinculos en una pestaña nueva" tal como lo muestra ésta imagen.

Baghead (2023) WEB-DL 1080p Latino

73 vistas

Información de Baghead (2023) WEB-DL 1080p Latino

Datos de la película

  • Calidad: WEBDL
  • Audio: Español Latino AC3 2.0 WEB-DL - Ingles AC3 5.1 WEB-DL
  • Subtitulos: Español Latino SRT- FORZADOS SRT
  • Resolución: 1918x802p
  • Formato: MKV
  • Codec: H.264
  • Encoder: Melkor
  • Mediainfo: Clic para Mostrar Datos Ver
  • Baghead (2024) WEB 1080p Latino.mkv
    Format                      : Matroska
    Format version              : Version 4
    File size                   : 7.19 GiB
    Duration                    : 1 h 34 min
    Overall bit rate            : 10.8 Mb/s
    Movie name                  : Baghead (2024) CinemaniaHDD.Net
    Encoded date                : UTC 2024-04-07 06:17:41
    Writing application         : mkvmerge v56.1.0 ('My Friend') 64-bit
    Writing library             : libebml v1.4.2 + libmatroska v1.6.4
    Attachments                 : CINEMANIAHD.png
    Site                        : CinemaniaHDD.Net
    Uploader                    : Melkor

    Video
    ID                          : 1
    Format                      : AVC
    Format/Info                 : Advanced Video Codec
    Format profile              : High@L4
    Format settings             : CABAC / 5 Ref Frames
    Format settings, CABAC      : Yes
    Format settings, Reference  : 5 frames
    Codec ID                    : V_MPEG4/ISO/AVC
    Duration                    : 1 h 34 min
    Bit rate                    : 9 944 kb/s
    Width                       : 1 918 pixels
    Height                      : 802 pixels
    Display aspect ratio        : 2.40:1
    Frame rate mode             : Constant
    Frame rate                  : 24.000 FPS
    Color space                 : YUV
    Chroma subsampling          : 4:2:0
    Bit depth                   : 8 bits
    Scan type                   : Progressive
    Bits/(Pixel*Frame)          : 0.269
    Stream size                 : 6.59 GiB (92%)
    Title                       : Web HD1080p [CinemaniaHDD]
    Language                    : English
    Default                     : Yes
    Forced                      : Yes
    Color range                 : Limited
    Color primaries             : BT.709
    Transfer characteristics    : BT.709
    Matrix coefficients         : BT.709

    Audio #1
    ID                          : 2
    Format                      : AC-3
    Format/Info                 : Audio Coding 3
    Commercial name             : Dolby Digital
    Codec ID                    : A_AC3
    Duration                    : 1 h 34 min
    Bit rate mode               : Constant
    Bit rate                    : 256 kb/s
    Channel(s)                  : 2 channels
    Channel layout              : L R
    Sampling rate               : 48.0 kHz
    Frame rate                  : 31.250 FPS (1536 SPF)
    Compression mode            : Lossy
    Stream size                 : 174 MiB (2%)
    Title                       : Español Latino [CinemaniaHDD]
    Language                    : Spanish
    Service kind                : Complete Main
    Default                     : Yes
    Forced                      : Yes

    Audio #2
    ID                          : 3
    Format                      : E-AC-3
    Format/Info                 : Enhanced AC-3
    Commercial name             : Dolby Digital Plus
    Codec ID                    : A_EAC3
    Duration                    : 1 h 34 min
    Bit rate mode               : Constant
    Bit rate                    : 640 kb/s
    Channel(s)                  : 6 channels
    Channel layout              : L R C LFE Ls Rs
    Sampling rate               : 48.0 kHz
    Frame rate                  : 31.250 FPS (1536 SPF)
    Compression mode            : Lossy
    Delay relative to video     : 12 ms
    Stream size                 : 435 MiB (6%)
    Title                       : Ingles [CinemaniaHDD]
    Language                    : English
    Service kind                : Complete Main
    Default                     : No
    Forced                      : No

    Text #1
    ID                          : 4
    Format                      : UTF-8
    Codec ID                    : S_TEXT/UTF8
    Codec ID/Info               : UTF-8 Plain Text
    Duration                    : 57 min 20 s
    Bit rate                    : 0 b/s
    Count of elements           : 3
    Stream size                 : 83.0 Bytes (0%)
    Title                       : Forzados-SRT [CinemaniaHDD]
    Language                    : Spanish
    Default                     : Yes
    Forced                      : Yes

    Text #2
    ID                          : 5
    Format                      : UTF-8
    Codec ID                    : S_TEXT/UTF8
    Codec ID/Info               : UTF-8 Plain Text
    Duration                    : 1 h 24 min
    Bit rate                    : 51 b/s
    Count of elements           : 897
    Stream size                 : 31.8 KiB (0%)
    Title                       : Español-SRT [CinemaniaHDD]
    Language                    : Spanish
    Default                     : No
    Forced                      : No

    Text #3
    ID                          : 6
    Format                      : UTF-8
    Codec ID                    : S_TEXT/UTF8
    Codec ID/Info               : UTF-8 Plain Text
    Duration                    : 1 h 23 min
    Bit rate                    : 42 b/s
    Count of elements           : 873
    Stream size                 : 26.3 KiB (0%)
    Title                       : Ingles-SRT [CinemaniaHDD]
    Language                    : English
    Default                     : No
    Forced                      : No

  • Peso: 7.19 GiB

Sinopsis

Descargar Baghead (2023) WEB-DL 1080p Latino. Tras la muerte de su padre, Iris descubre que ha heredado un antiguo bar en ruinas. Viaja a Berlín para identificar el cuerpo de su padre y reunirse con el abogado para hablar sobre su herencia. Lo que ella no sabe es que, cuando firme las escrituras, quedará ligada a una entidad indescriptible que habita en el sótano del bar: Baghead, una criatura que cambia de forma y puede tomar la forma de cualquier persona que haya muerto. Dos mil dólares en efectivo por dos minutos con la criatura es todo lo que necesita la gente para hablar con sus seres queridos y calmar su dolor. Neil, quien ha perdido a su esposa, es el primer cliente de Iris. Al igual que lo hizo su padre, Iris se siente tentada a explotar los poderes de la criatura ayudando a personas desesperadas por algo de dinero. Pero pronto descubre que romper la regla de los dos minutos puede tener consecuencias aterradoras.

Ficha técnica

Video trailer de la película

Enlaces de descarga

Rip de Bluray

Descargar Baghead (2023) WEB-DL 1080p Latino




Aportes de DPeliculasHDmega la pass es:dpeliculashdmega.org Aportes de CinemaniaHD la pass es:cinemaniahdd.com Aportes recientes:cinemaniahdd.net
Guardado en : Suspenso , Terror

Películas relacionadas

  • Strictly Confidential (2024) WEB-DL 1080p Latino

    Strictly Confidential (2024) WEB-DL 1080p Latino

    2024
    Strictly Confidential (2024) WEB-DL 1080p Latino

    1h 28m 2024

    Descargar Strictly Confidential (2024) WEB-DL 1080p Latino. Una joven atormentada se ve atraída por...

    Director: Damian Hurley

    Género: Misterio

    Actores: Thomas Downey

  • La Otra Cara de Dorian (2023) WEB-DL 1080p Latino

    La Otra Cara de Dorian (2023) WEB-DL 1080p Latino

    2023
    La Otra Cara de Dorian (2023) WEB-DL 1080p Latino

    1h 40m 2023

    Descargar La Otra Cara de Dorian (2023) WEB-DL 1080p Latino. Una versión moderna del cuento de Oscar...

    Director: Richard John Taylor

    Género: Drama

    Actores: Triana Terry

  • La melodía del diablo (2023) WEB-DL 1080p Latino

    La melodía del diablo (2023) WEB-DL 1080p Latino

    2023
    La melodía del diablo (2023) WEB-DL 1080p Latino

    1h 35m 2023

    Descargar La melodía del diablo (2023) WEB-DL 1080p Latino. Una joven compositora se encuentra frente...

    Director: Erlingur Thoroddsen

    Género: Terror

    Actores: Salomé Chandler

  • Antichrist (2009) Full HD 1080p SUB-CMHDD

    Antichrist (2009) Full HD 1080p SUB-CMHDD

    2009
    Antichrist (2009) Full HD 1080p SUB-CMHDD

    1h 48m 2009

    Descargar Antichrist (2009) Full HD 1080p SUB-CMHDD. Una pareja sumida en el dolor se retira a una cabaña...

    Director: Tómas Gislason

    Género: Drama

    Actores: Willem Dafoe

  • Antichrist (2009) 1080p SUB-CMHDD

    Antichrist (2009) 1080p SUB-CMHDD

    2009
    Antichrist (2009) 1080p SUB-CMHDD

    1h 48m 2009

    Descargar Antichrist (2009) 1080p SUB-CMHDD. Una pareja sumida en el dolor se retira a una cabaña perdida...

    Director: Tómas Gislason

    Género: Drama

    Actores: Willem Dafoe

descargar Baghead (2023) WEB-DL 1080p Latino WEBDL 1080p gratis, Baghead (2023) WEB-DL 1080p Latino WEBDL mega 1 link, Baghead (2023) WEB-DL 1080p Latino WEBDL pelicula completa, descargar Baghead (2023) WEB-DL 1080p Latino WEBDL gratis en mega.

Baghead (2023) WEB-DL 1080p Latino pelicula full hd, Baghead (2023) WEB-DL 1080p Latino mega latino, Baghead (2023) WEB-DL 1080p Latino 4k latino, Baghead (2023) WEB-DL 1080p Latino pelicula completa, Baghead (2023) WEB-DL 1080p Latino descargar gratis, descargar Baghead (2023) WEB-DL 1080p Latino pelicula latino, Baghead (2023) WEB-DL 1080p Latino 1 link mega, Baghead (2023) WEB-DL 1080p Latino 1 link google drive, Baghead (2023) WEB-DL 1080p Latino hd 1080p latino.
Comentarios 0