×

¿Problemas para descargar con Mozilla, EDGE? Deshabilita la opción "Abrir vinculos en una pestaña nueva" tal como lo muestra ésta imagen.

Bad Boys II (2003) REMUX 4K HDR Latino – CMHDD

245 vistas

Información de Bad Boys II (2003) REMUX 4K HDR Latino – CMHDD

Datos de la película

  • Calidad: 4K HDR
  • Audio: Español Latino AC3 5.1 BLURAY - Ingles DTS 5.1 BLURAY
  • Subtitulos: Español Latino PGS
  • Resolución: 3840x2160p
  • Formato: MKV
  • Codec: H.264
  • Encoder: Dracarys
  • Mediainfo: Clic para Mostrar Datos Ver
  • Format                      : Matroska
    Format version              : Version 4
    File size                   : 62.0 GiB
    Duration                    : 2 h 26 min
    Overall bit rate mode       : Variable
    Overall bit rate            : 60.5 Mb/s
    Movie name                  : Bad Boys II (2003) REMUX 4K HDR Latino - CMHDD
    Encoded date                : UTC 2022-05-22 01:56:11
    Writing application         : mkvmerge v17.0.0 ('Be Ur Friend') 64-bit
    Writing library             : libebml v1.3.5 + libmatroska v1.4.8

    Video
    ID                          : 1
    Format                      : HEVC
    Format/Info                 : High Efficiency Video Coding
    Format profile              : Main 10@L5.1@High
    HDR format                  : SMPTE ST 2086, HDR10 compatible
    Codec ID                    : V_MPEGH/ISO/HEVC
    Duration                    : 2 h 26 min
    Bit rate                    : 51.0 Mb/s
    Width                       : 3 840 pixels
    Height                      : 2 160 pixels
    Display aspect ratio        : 16:9
    Frame rate mode             : Constant
    Frame rate                  : 23.976 (24000/1001) FPS
    Color space                 : YUV
    Chroma subsampling          : 4:2:0 (Type 2)
    Bit depth                   : 10 bits
    Bits/(Pixel*Frame)          : 0.256
    Stream size                 : 52.2 GiB (84%)
    Default                     : Yes
    Forced                      : No
    Color range                 : Limited
    Color primaries             : BT.2020
    Transfer characteristics    : PQ
    Matrix coefficients         : BT.2020 non-constant
    Mastering display color pri : Display P3
    Mastering display luminance : min: 0.0050 cd/m2, max: 4000 cd/m2
    Maximum Content Light Level : 10000 cd/m2
    Maximum Frame-Average Light : 1367 cd/m2

    Audio #1
    ID                          : 2
    Format                      : MLP FBA 16-ch
    Format/Info                 : Meridian Lossless Packing FBA with 16-channel presentation
    Commercial name             : Dolby TrueHD with Dolby Atmos
    Codec ID                    : A_TRUEHD
    Duration                    : 2 h 26 min
    Bit rate mode               : Variable
    Bit rate                    : 5 774 kb/s
    Maximum bit rate            : 8 961 kb/s
    Channel(s)                  : 8 channels
    Channel layout              : L R C LFE Ls Rs Lb Rb
    Sampling rate               : 48.0 kHz
    Frame rate                  : 1 200.000 FPS (40 SPF)
    Compression mode            : Lossless
    Stream size                 : 5.92 GiB (10%)
    Language                    : English
    Default                     : No
    Forced                      : No
    Number of dynamic objects   : 11
    Bed channel count           : 1 channel
    Bed channel configuration   : LFE

    Audio #2
    ID                          : 3
    Format                      : AC-3
    Format/Info                 : Audio Coding 3
    Commercial name             : Dolby Digital
    Codec ID                    : A_AC3
    Duration                    : 2 h 26 min
    Bit rate mode               : Constant
    Bit rate                    : 640 kb/s
    Channel(s)                  : 6 channels
    Channel layout              : L R C LFE Ls Rs
    Sampling rate               : 48.0 kHz
    Frame rate                  : 31.250 FPS (1536 SPF)
    Compression mode            : Lossy
    Stream size                 : 672 MiB (1%)
    Language                    : English
    Service kind                : Complete Main
    Default                     : No
    Forced                      : No

    Audio #3
    ID                          : 4
    Format                      : DTS XLL
    Format/Info                 : Digital Theater Systems
    Commercial name             : DTS-HD Master Audio
    Codec ID                    : A_DTS
    Duration                    : 2 h 26 min
    Bit rate mode               : Variable
    Bit rate                    : 2 372 kb/s
    Channel(s)                  : 6 channels
    Channel layout              : C L R Ls Rs LFE
    Sampling rate               : 48.0 kHz
    Frame rate                  : 93.750 FPS (512 SPF)
    Bit depth                   : 16 bits
    Compression mode            : Lossless
    Stream size                 : 2.43 GiB (4%)
    Language                    : English
    Default                     : No
    Forced                      : No

    Audio #4
    ID                          : 5
    Format                      : AC-3
    Format/Info                 : Audio Coding 3
    Commercial name             : Dolby Digital
    Codec ID                    : A_AC3
    Duration                    : 2 h 26 min
    Bit rate mode               : Constant
    Bit rate                    : 640 kb/s
    Channel(s)                  : 6 channels
    Channel layout              : L R C LFE Ls Rs
    Sampling rate               : 48.0 kHz
    Frame rate                  : 31.250 FPS (1536 SPF)
    Compression mode            : Lossy
    Delay relative to video     : 15 ms
    Stream size                 : 672 MiB (1%)
    Language                    : Spanish
    Service kind                : Complete Main
    Default                     : Yes
    Forced                      : No

    Text
    ID                          : 6
    Format                      : PGS
    Muxing mode                 : zlib
    Codec ID                    : S_HDMV/PGS
    Codec ID/Info               : Picture based subtitle format used on BDs/HD-DVDs
    Duration                    : 2 h 21 min
    Bit rate                    : 37.3 kb/s
    Count of elements           : 3904
    Stream size                 : 37.6 MiB (0%)
    Language                    : Spanish
    Default                     : No
    Forced                      : No

    Menu
    00:00:00.000                : en:Chapter 1
    00:11:05.498                : en:Chapter 2
    00:21:55.397                : en:Chapter 3
    00:39:55.768                : en:Chapter 4
    00:45:28.684                : en:Chapter 5
    00:53:28.788                : en:Chapter 6
    00:59:02.247                : en:Chapter 7
    01:06:27.066                : en:Chapter 8
    01:11:29.618                : en:Chapter 9
    01:17:54.169                : en:Chapter 10
    01:30:28.131                : en:Chapter 11
    01:37:39.228                : en:Chapter 12
    01:45:54.765                : en:Chapter 13
    01:56:47.625                : en:Chapter 14
    02:05:08.584                : en:Chapter 15
    02:16:07.701                : en:Chapter 16

  • Peso: 62.0 GiB

Sinopsis

En esta nueva aventura, los detectives de narcóticos de Miami, Mike Lowrey (Will Smith) y Marcus Burnett (Martin Lawrence), son asignados para formar parte de un equipo de alta tecnología que trata de destapar la trama del diseño de éxtasis en Miami. Pero inconscientemente descubren una conspiración mortal que involucra a un despiadado señor de la droga, Johnny Tapia (Jordi Mollà), que está decidido a expandir su imperio y tomar el control del negocio de la venta de narcóticos en la ciudad matando a cualquiera que se interponga en su camino. Para empeorar las cosas, la bella hermana de Marcus, Syd (Gabrielle Union), una agente infiltrada de la DEA, se queda atrapada en el fuego cruzado, forzando a nuestros héroes a situarse al límite de la ley. Todo se complica todavía más cuando Cupido empieza a sobrevolar sobre Mike y Syd, provocando las iras de su protector hermano.

Ficha técnica

Video trailer de la película

Enlaces de descarga

Rip de Bluray

Descargar Bad Boys II (2003) REMUX 4K HDR Latino – CMHDD


Aportes de DPeliculasHDmega la pass es:dpeliculashdmega.org Aportes de CinemaniaHD la pass es:cinemaniahdd.com
Guardado en : Acción , Aventura , Comedia , Crimen , Suspenso

Películas relacionadas

  • Mi amigo el dragón (2016) Full HD 1080p Latino

    Mi amigo el dragón (2016) Full HD 1080p Latino

    2016
    Mi amigo el dragón (2016) Full HD 1080p Latino

    1h 43m 2016

    Descargar Mi amigo el dragón (2016) Full HD 1080p Latino. Durante años el Sr. Meacham, un viejo tallador...

    Director: Joe Nolan

    Género: Aventura

    Actores: William J. Rawbone

  • Mi amigo el dragón (2016) REMUX 1080p Latino

    Mi amigo el dragón (2016) REMUX 1080p Latino

    2016
    Mi amigo el dragón (2016) REMUX 1080p Latino

    1h 43m 2016

    Descargar Mi amigo el dragón (2016) REMUX 1080p Latino. Durante años el Sr. Meacham, un viejo tallador...

    Director: Joe Nolan

    Género: Aventura

    Actores: William J. Rawbone

  • Lucy (2014) REMUX 4K HDR Latino – CMHDD

    Lucy (2014) REMUX 4K HDR Latino – CMHDD

    2014
    Lucy (2014) REMUX 4K HDR Latino – CMHDD

    1h 30m 2014

    Lucy, una joven obligada a ejercer de mula de una nueva y potente droga, adquiere de repente enormes...

    Director: Luc Besson

    Género: Acción

    Actores: Wolfgang Pissors

descargar Bad Boys II (2003) REMUX 4K HDR Latino – CMHDD 4K HDR 1080p gratis, Bad Boys II (2003) REMUX 4K HDR Latino – CMHDD 4K HDR mega 1 link, Bad Boys II (2003) REMUX 4K HDR Latino – CMHDD 4K HDR pelicula completa, descargar Bad Boys II (2003) REMUX 4K HDR Latino – CMHDD 4K HDR gratis en mega.

Bad Boys II (2003) REMUX 4K HDR Latino – CMHDD pelicula full hd, Bad Boys II (2003) REMUX 4K HDR Latino – CMHDD mega latino, Bad Boys II (2003) REMUX 4K HDR Latino – CMHDD 4k latino, Bad Boys II (2003) REMUX 4K HDR Latino – CMHDD pelicula completa, Bad Boys II (2003) REMUX 4K HDR Latino – CMHDD descargar gratis, descargar Bad Boys II (2003) REMUX 4K HDR Latino – CMHDD pelicula latino, Bad Boys II (2003) REMUX 4K HDR Latino – CMHDD 1 link mega, Bad Boys II (2003) REMUX 4K HDR Latino – CMHDD 1 link google drive, Bad Boys II (2003) REMUX 4K HDR Latino – CMHDD hd 1080p latino.
Comentarios 0