Bad Boys para Siempre (2020) PLACEBO Full HD 1080p Latino

3.169 vistas
1 estrella2 estrellas3 estrellas4 estrellas5 estrellas (6 votos, promedio: 4,33 de 5)
Cargando…

Información de Bad Boys para Siempre (2020) PLACEBO Full HD 1080p Latino

Datos de la película

  • Calidad: Full 1080p
  • Audio: Español Latino AC3 5.1 BLURAY - Ingles DTS 5.1 BLURAY
  • Subtitulos: Español Latino PGS - Ingles PGS
  • Resolución: 1920x1080p
  • Formato: MKV
  • Codec: H.264
  • Encoder: Melkor
  • Mediainfo: Clic para Mostrar Datos Ver
  • Bad Boys Para Siempre (2020) PLACEBO Full HD 1080p Latino.mkv
    Format                      : Matroska
    Format version              : Version 4
    File size                   : 7.64 GiB
    Duration                    : 2 h 3 min
    Overall bit rate            : 8 827 kb/s
    Movie name                  : Bad Boys For Life (2020) CinemaniaHDD.Net
    Encoded date                : UTC 2020-04-09 05:22:46
    Writing application         : mkvmerge v42.0.0 ('Overtime') 64-bit
    Writing library             : libebml v1.3.10 + libmatroska v1.5.2
    Attachments                 : CINEMANIAHD.png

    Video
    ID                          : 1
    Format                      : AVC
    Format/Info                 : Advanced Video Codec
    Format profile              : High@L4.1
    Format settings             : CABAC / 4 Ref Frames
    Format settings, CABAC      : Yes
    Format settings, ReFrames   : 4 frames
    Codec ID                    : V_MPEG4/ISO/AVC
    Duration                    : 2 h 3 min
    Bit rate                    : 6 637 kb/s
    Width                       : 1 920 pixels
    Height                      : 1 080 pixels
    Display aspect ratio        : 16:9
    Frame rate mode             : Constant
    Frame rate                  : 23.976 (24000/1001) FPS
    Color space                 : YUV
    Chroma subsampling          : 4:2:0
    Bit depth                   : 8 bits
    Scan type                   : Progressive
    Bits/(Pixel*Frame)          : 0.133
    Stream size                 : 5.75 GiB (75%)
    Title                       : Full HD1080p [CinemaniaHDD]
    Writing library             : x264 core 157 r2935 545de2f
    Encoding settings           : cabac=1 / ref=4 / deblock=1:0:0 / analyse=0x3:0x133 / me=tesa / subme=11 / psy=1 / psy_rd=1.00:0.00 / mixed_ref=1 / me_range=24 / chroma_me=1 / trellis=2 / 8x8dct=1 / cqm=0 / deadzone=21,11 / fast_pskip=0 / chroma_qp_offset=-2 / threads=34 / lookahead_threads=8 / sliced_threads=0 / nr=0 / decimate=1 / interlaced=0 / bluray_compat=0 / constrained_intra=0 / bframes=16 / b_pyramid=2 / b_adapt=2 / b_bias=0 / direct=3 / weightb=1 / open_gop=0 / weightp=2 / keyint=240 / keyint_min=24 / scenecut=40 / intra_refresh=0 / rc_lookahead=60 / rc=crf / mbtree=1 / crf=19.0 / qcomp=0.60 / qpmin=0 / qpmax=69 / qpstep=4 / vbv_maxrate=62500 / vbv_bufsize=78125 / crf_max=0.0 / nal_hrd=none / filler=0 / ip_ratio=1.40 / aq=1:1.00
    Default                     : Yes
    Forced                      : No
    Color range                 : Limited
    Color primaries             : BT.709
    Transfer characteristics    : BT.709
    Matrix coefficients         : BT.709

    Audio #1
    ID                          : 2
    Format                      : AC-3
    Format/Info                 : Audio Coding 3
    Commercial name             : Dolby Digital
    Codec ID                    : A_AC3
    Duration                    : 2 h 3 min
    Bit rate mode               : Constant
    Bit rate                    : 640 kb/s
    Channel(s)                  : 6 channels
    Channel layout              : L R C LFE Ls Rs
    Sampling rate               : 48.0 kHz
    Frame rate                  : 31.250 FPS (1536 SPF)
    Bit depth                   : 16 bits
    Compression mode            : Lossy
    Stream size                 : 568 MiB (7%)
    Title                       : Español Latino [CinemaniaHDD]
    Language                    : Spanish
    Service kind                : Complete Main
    Default                     : Yes
    Forced                      : No

    Audio #2
    ID                          : 3
    Format                      : DTS
    Format/Info                 : Digital Theater Systems
    Codec ID                    : A_DTS
    Duration                    : 2 h 3 min
    Bit rate mode               : Constant
    Bit rate                    : 1 509 kb/s
    Channel(s)                  : 6 channels
    Channel layout              : C L R Ls Rs LFE
    Sampling rate               : 48.0 kHz
    Frame rate                  : 93.750 FPS (512 SPF)
    Bit depth                   : 24 bits
    Compression mode            : Lossy
    Stream size                 : 1.31 GiB (17%)
    Title                       : Ingles [CinemaniaHDD]
    Language                    : English
    Default                     : No
    Forced                      : No

    Text #1
    ID                          : 4
    Format                      : PGS
    Muxing mode                 : zlib
    Codec ID                    : S_HDMV/PGS
    Codec ID/Info               : Picture based subtitle format used on BDs/HD-DVDs
    Duration                    : 1 h 58 min
    Bit rate                    : 156 b/s
    Count of elements           : 16
    Stream size                 : 136 KiB (0%)
    Title                       : Forzados-PGS [CinemaniaHDD]
    Language                    : Spanish
    Default                     : Yes
    Forced                      : No

    Text #2
    ID                          : 5
    Format                      : PGS
    Muxing mode                 : zlib
    Codec ID                    : S_HDMV/PGS
    Codec ID/Info               : Picture based subtitle format used on BDs/HD-DVDs
    Duration                    : 2 h 2 min
    Bit rate                    : 31.3 kb/s
    Count of elements           : 2924
    Stream size                 : 27.5 MiB (0%)
    Title                       : Español-PGS [CinemaniaHDD]
    Language                    : Spanish
    Default                     : No
    Forced                      : No

    Text #3
    ID                          : 6
    Format                      : PGS
    Muxing mode                 : zlib
    Codec ID                    : S_HDMV/PGS
    Codec ID/Info               : Picture based subtitle format used on BDs/HD-DVDs
    Duration                    : 1 h 57 min
    Bit rate                    : 44.3 kb/s
    Count of elements           : 3753
    Stream size                 : 37.3 MiB (0%)
    Title                       : Ingles-PGS [CinemaniaHDD]
    Language                    : English
    Default                     : No
    Forced                      : No

    Text #4
    ID                          : 7
    Format                      : UTF-8
    Codec ID                    : S_TEXT/UTF8
    Codec ID/Info               : UTF-8 Plain Text
    Duration                    : 1 h 53 min
    Bit rate                    : 0 b/s
    Count of elements           : 18
    Stream size                 : 464 Bytes (0%)
    Title                       : Forzados-SRT [CinemaniaHDD]
    Language                    : Spanish
    Default                     : No
    Forced                      : No

    Text #5
    ID                          : 8
    Format                      : UTF-8
    Codec ID                    : S_TEXT/UTF8
    Codec ID/Info               : UTF-8 Plain Text
    Duration                    : 1 h 57 min
    Bit rate                    : 56 b/s
    Count of elements           : 1488
    Stream size                 : 48.7 KiB (0%)
    Title                       : Español-SRT [CinemaniaHDD]
    Language                    : Spanish
    Default                     : No
    Forced                      : No

    Menu
    00:00:00.000                : en:Chapter 01
    00:07:33.202                : en:Chapter 02
    00:14:56.645                : en:Chapter 03
    00:23:43.255                : en:Chapter 04
    00:31:05.613                : en:Chapter 05
    00:38:43.070                : en:Chapter 06
    00:45:26.348                : en:Chapter 07
    00:53:27.329                : en:Chapter 08
    01:00:22.035                : en:Chapter 09
    01:07:29.253                : en:Chapter 10
    01:12:55.162                : en:Chapter 11
    01:22:12.344                : en:Chapter 12
    01:29:49.092                : en:Chapter 13
    01:36:47.802                : en:Chapter 14
    01:42:08.580                : en:Chapter 15
    01:53:55.912                : en:Chapter 16

  • Peso: 7.64 GiB

Sinopsis

Descargar Bad Boys para Siempre (2020) PLACEBO Full HD 1080p Latino. El Departamento de Policía de Miami y su equipo de élite AMMO intentan derribar a Armando Armas, jefe de un cartel de la droga. Armando es un asesino de sangre fría con una naturaleza viciosa y contaminante. Él está comprometido con el trabajo del cartel y es enviado por su madre Isabel, para matar a Mike.

Ficha técnica

Video trailer de la película

Enlaces de descarga

Rip de Bluray

Descargar Bad Boys para Siempre (2020) PLACEBO Full HD 1080p Latino




Aportes de DPeliculasHDmega la pass es:dpeliculashdmega.org Aportes de CinemaniaHD la pass es:cinemaniahdd.com

Películas relacionadas

  • Female Fight Club: El Duelo Final (2016) HD 1080p Latino

    Female Fight Club: El Duelo Final (2016) HD 1080p Latino

    2017
    Female Fight Club: El Duelo Final (2016) HD 1080p Latino

    0.0 1h 30m 2017

    Descargar Female Fight Club: El Duelo Final (2016) HD 1080p Latino. Una ex-luchadora regresa a la vida...

    Director: Nicholas Paul Ybarra

    Género: Acción

    Actores: Tamiko Brownlee

  • El Niño (2016) 1080p Latino

    El Niño (2016) 1080p Latino

    2016
    El Niño (2016) 1080p Latino

    0.0 1h 37m 2016

    Descargar El Niño (2016) 1080p Latino. Greta (Lauren Cohan) es una joven americana que acepta trabajar...

    Director: William Brent Bell

    Género: HD 1080p

    Actores: Stephanie Lemelin

  • El Niño (2016) Full HD 1080p Latino

    El Niño (2016) Full HD 1080p Latino

    2016
    El Niño (2016) Full HD 1080p Latino

    0.0 1h 37m 2016

    Descargar El Niño (2016) Full HD 1080p Latino. Greta (Lauren Cohan) es una joven americana que acepta...

    Director: William Brent Bell

    Género: FULL 1080p Plateadas

    Actores: Stephanie Lemelin

Comentarios 0