×

¿Problemas para descargar con Mozilla, EDGE? Deshabilita la opción "Abrir vinculos en una pestaña nueva" tal como lo muestra ésta imagen.

Bad Boys (1995) REMUX 4K HDR Latino – CMHDD

245 vistas

Información de Bad Boys (1995) REMUX 4K HDR Latino – CMHDD

Datos de la película

  • Calidad: 4K HDR
  • Audio: Español Latino AC3 5.1 BLURAY - Ingles DTS 5.1 BLURAY
  • Subtitulos: Español Latino PGS
  • Resolución: 3840x2160p
  • Formato: MKV
  • Codec: H.264
  • Encoder: Dracarys
  • Mediainfo: Clic para Mostrar Datos Ver
  • Format                      : Matroska
    Format version              : Version 4
    File size                   : 59.5 GiB
    Duration                    : 1 h 58 min
    Overall bit rate mode       : Variable
    Overall bit rate            : 71.7 Mb/s
    Movie name                  : Bad Boys (1995) REMUX 4K HDR Latino - CMHDD
    Encoded date                : UTC 2022-05-22 01:14:25
    Writing application         : mkvmerge v17.0.0 ('Be Ur Friend') 64-bit
    Writing library             : libebml v1.3.5 + libmatroska v1.4.8

    Video
    ID                          : 1
    Format                      : HEVC
    Format/Info                 : High Efficiency Video Coding
    Format profile              : Main 10@L5.1@High
    HDR format                  : SMPTE ST 2086, HDR10 compatible
    Codec ID                    : V_MPEGH/ISO/HEVC
    Duration                    : 1 h 58 min
    Bit rate                    : 64.3 Mb/s
    Width                       : 3 840 pixels
    Height                      : 2 160 pixels
    Display aspect ratio        : 16:9
    Frame rate mode             : Constant
    Frame rate                  : 23.976 (24000/1001) FPS
    Color space                 : YUV
    Chroma subsampling          : 4:2:0 (Type 2)
    Bit depth                   : 10 bits
    Bits/(Pixel*Frame)          : 0.323
    Stream size                 : 53.4 GiB (90%)
    Default                     : Yes
    Forced                      : No
    Color range                 : Limited
    Color primaries             : BT.2020
    Transfer characteristics    : PQ
    Matrix coefficients         : BT.2020 non-constant
    Mastering display color pri : Display P3
    Mastering display luminance : min: 0.0050 cd/m2, max: 4000 cd/m2
    Maximum Content Light Level : 6239 cd/m2
    Maximum Frame-Average Light : 4864 cd/m2

    Audio #1
    ID                          : 2
    Format                      : MLP FBA 16-ch
    Format/Info                 : Meridian Lossless Packing FBA with 16-channel presentation
    Commercial name             : Dolby TrueHD with Dolby Atmos
    Codec ID                    : A_TRUEHD
    Duration                    : 1 h 58 min
    Bit rate mode               : Variable
    Bit rate                    : 3 750 kb/s
    Maximum bit rate            : 5 721 kb/s
    Channel(s)                  : 8 channels
    Channel layout              : L R C LFE Ls Rs Lb Rb
    Sampling rate               : 48.0 kHz
    Frame rate                  : 1 200.000 FPS (40 SPF)
    Compression mode            : Lossless
    Delay relative to video     : 1 ms
    Stream size                 : 3.11 GiB (5%)
    Language                    : English
    Default                     : No
    Forced                      : No
    Number of dynamic objects   : 11
    Bed channel count           : 1 channel
    Bed channel configuration   : LFE

    Audio #2
    ID                          : 3
    Format                      : AC-3
    Format/Info                 : Audio Coding 3
    Commercial name             : Dolby Digital
    Codec ID                    : A_AC3
    Duration                    : 1 h 58 min
    Bit rate mode               : Constant
    Bit rate                    : 640 kb/s
    Channel(s)                  : 6 channels
    Channel layout              : L R C LFE Ls Rs
    Sampling rate               : 48.0 kHz
    Frame rate                  : 31.250 FPS (1536 SPF)
    Compression mode            : Lossy
    Delay relative to video     : 1 ms
    Stream size                 : 544 MiB (1%)
    Language                    : English
    Service kind                : Complete Main
    Default                     : No
    Forced                      : No

    Audio #3
    ID                          : 4
    Format                      : DTS XLL
    Format/Info                 : Digital Theater Systems
    Commercial name             : DTS-HD Master Audio
    Codec ID                    : A_DTS
    Duration                    : 1 h 58 min
    Bit rate mode               : Variable
    Bit rate                    : 2 337 kb/s
    Channel(s)                  : 6 channels
    Channel layout              : C L R Ls Rs LFE
    Sampling rate               : 48.0 kHz
    Frame rate                  : 93.750 FPS (512 SPF)
    Bit depth                   : 16 bits
    Compression mode            : Lossless
    Stream size                 : 1.94 GiB (3%)
    Language                    : English
    Default                     : No
    Forced                      : No

    Audio #4
    ID                          : 5
    Format                      : AC-3
    Format/Info                 : Audio Coding 3
    Commercial name             : Dolby Digital
    Codec ID                    : A_AC3
    Duration                    : 1 h 58 min
    Bit rate mode               : Constant
    Bit rate                    : 640 kb/s
    Channel(s)                  : 6 channels
    Channel layout              : L R C LFE Ls Rs
    Sampling rate               : 48.0 kHz
    Frame rate                  : 31.250 FPS (1536 SPF)
    Compression mode            : Lossy
    Delay relative to video     : 29 ms
    Stream size                 : 544 MiB (1%)
    Language                    : Spanish
    Service kind                : Complete Main
    Default                     : Yes
    Forced                      : No

    Text
    ID                          : 6
    Format                      : PGS
    Muxing mode                 : zlib
    Codec ID                    : S_HDMV/PGS
    Codec ID/Info               : Picture based subtitle format used on BDs/HD-DVDs
    Duration                    : 1 h 54 min
    Bit rate                    : 37.7 kb/s
    Count of elements           : 3216
    Stream size                 : 30.8 MiB (0%)
    Language                    : Spanish
    Default                     : No
    Forced                      : No

    Menu
    00:00:00.000                : en:Chapter 1
    00:05:07.473                : en:Chapter 2
    00:12:01.971                : en:Chapter 3
    00:17:38.098                : en:Chapter 4
    00:23:33.203                : en:Chapter 5
    00:31:31.764                : en:Chapter 6
    00:41:09.133                : en:Chapter 7
    00:47:35.310                : en:Chapter 8
    00:54:37.357                : en:Chapter 9
    01:04:05.675                : en:Chapter 10
    01:13:49.800                : en:Chapter 11
    01:20:21.483                : en:Chapter 12
    01:27:58.523                : en:Chapter 13
    01:34:54.271                : en:Chapter 14
    01:43:09.308                : en:Chapter 15
    01:50:51.353                : en:Chapter 16

  • Peso: 59.5 GiB

Sinopsis

Un alijo de heroína valorada en unos 100 millones de dólares es robado del mismísimo depósito de la policía. El caso le será asignado a los agentes Burnett y Lowery, una pareja muy peculiar por los métodos que utilizan. La única pista que tienen para comenzar es la de un testigo que les ayudará a identificar a los atracadores y a la que tendrán que proteger.

Ficha técnica

Video trailer de la película

Enlaces de descarga

Rip de Bluray

Descargar Bad Boys (1995) REMUX 4K HDR Latino – CMHDD


Aportes de DPeliculasHDmega la pass es:dpeliculashdmega.org Aportes de CinemaniaHD la pass es:cinemaniahdd.com
Guardado en : Acción , Comedia , Crimen , Suspenso

Películas relacionadas

descargar Bad Boys (1995) REMUX 4K HDR Latino – CMHDD 4K HDR 1080p gratis, Bad Boys (1995) REMUX 4K HDR Latino – CMHDD 4K HDR mega 1 link, Bad Boys (1995) REMUX 4K HDR Latino – CMHDD 4K HDR pelicula completa, descargar Bad Boys (1995) REMUX 4K HDR Latino – CMHDD 4K HDR gratis en mega.

Bad Boys (1995) REMUX 4K HDR Latino – CMHDD pelicula full hd, Bad Boys (1995) REMUX 4K HDR Latino – CMHDD mega latino, Bad Boys (1995) REMUX 4K HDR Latino – CMHDD 4k latino, Bad Boys (1995) REMUX 4K HDR Latino – CMHDD pelicula completa, Bad Boys (1995) REMUX 4K HDR Latino – CMHDD descargar gratis, descargar Bad Boys (1995) REMUX 4K HDR Latino – CMHDD pelicula latino, Bad Boys (1995) REMUX 4K HDR Latino – CMHDD 1 link mega, Bad Boys (1995) REMUX 4K HDR Latino – CMHDD 1 link google drive, Bad Boys (1995) REMUX 4K HDR Latino – CMHDD hd 1080p latino.
Comentarios 0