×

¿Problemas para descargar con Mozilla, EDGE? Deshabilita la opción "Abrir vinculos en una pestaña nueva" tal como lo muestra ésta imagen.

Back to the Future Part II (1989) REMUX 4K HDR Latino – CMHDD

333 vistas

Información de Back to the Future Part II (1989) REMUX 4K HDR Latino – CMHDD

Datos de la película

  • Calidad: 4K HDR
  • Audio: Español Latino AC3 5.1 BLURAY - Ingles DTS-HD Master 7.1 BLURAY
  • Subtitulos: Español Latino PGS
  • Resolución: 3840x2160
  • Formato: MKV
  • Codec: H.264
  • Encoder: Dracarys
  • Mediainfo: Clic para Mostrar Datos Ver
  • Format                      : Matroska
    Format version              : Version 4
    File size                   : 71.4 GiB
    Duration                    : 1 h 48 min
    Overall bit rate mode       : Variable
    Overall bit rate            : 94.6 Mb/s
    Movie name                  : Back to the Future Part II (1989) REMUX 4K HDR Latino – CMHDD
    Encoded date                : UTC 2024-04-08 20:42:31
    Writing application         : mkvmerge v47.0.0 ('Black Flag') 64-bit
    Writing library             : libebml v1.3.10 + libmatroska v1.5.2

    Video
    ID                          : 1
    ID in the original source m : 4113 (0x1011)
    Format                      : HEVC
    Format/Info                 : High Efficiency Video Coding
    Format profile              : Main 10@L5.1@High
    HDR format                  : SMPTE ST 2094 App 4, Version 1, HDR10+ Profile B compatible
    Codec ID                    : V_MPEGH/ISO/HEVC
    Duration                    : 1 h 48 min
    Bit rate                    : 84.6 Mb/s
    Width                       : 3 840 pixels
    Height                      : 2 160 pixels
    Display aspect ratio        : 16:9
    Frame rate mode             : Constant
    Frame rate                  : 23.976 (24000/1001) FPS
    Color space                 : YUV
    Chroma subsampling          : 4:2:0 (Type 2)
    Bit depth                   : 10 bits
    Bits/(Pixel*Frame)          : 0.425
    Stream size                 : 63.9 GiB (89%)
    Language                    : English
    Default                     : No
    Forced                      : No
    Color range                 : Limited
    Color primaries             : BT.2020
    Transfer characteristics    : PQ
    Matrix coefficients         : BT.2020 non-constant
    Mastering display color pri : Display P3
    Mastering display luminance : min: 0.0050 cd/m2, max: 4000 cd/m2
    Maximum Content Light Level : 1000 cd/m2
    Maximum Frame-Average Light : 606 cd/m2
    Original source medium      : Blu-ray

    Audio #1
    ID                          : 2
    Format                      : AC-3
    Format/Info                 : Audio Coding 3
    Commercial name             : Dolby Digital
    Codec ID                    : A_AC3
    Duration                    : 1 h 48 min
    Bit rate mode               : Constant
    Bit rate                    : 640 kb/s
    Channel(s)                  : 6 channels
    Channel layout              : L R C LFE Ls Rs
    Sampling rate               : 48.0 kHz
    Frame rate                  : 31.250 FPS (1536 SPF)
    Compression mode            : Lossy
    Stream size                 : 495 MiB (1%)
    Language                    : Spanish
    Service kind                : Complete Main
    Default                     : Yes
    Forced                      : No

    Audio #2
    ID                          : 3
    Format                      : AC-3
    Format/Info                 : Audio Coding 3
    Commercial name             : Dolby Digital
    Codec ID                    : A_AC3
    Duration                    : 1 h 48 min
    Bit rate mode               : Constant
    Bit rate                    : 640 kb/s
    Channel(s)                  : 6 channels
    Channel layout              : L R C LFE Ls Rs
    Sampling rate               : 48.0 kHz
    Frame rate                  : 31.250 FPS (1536 SPF)
    Compression mode            : Lossy
    Stream size                 : 495 MiB (1%)
    Language                    : English
    Service kind                : Complete Main
    Default                     : No
    Forced                      : No

    Audio #3
    ID                          : 4
    Format                      : DTS XLL
    Format/Info                 : Digital Theater Systems
    Commercial name             : DTS-HD Master Audio
    Codec ID                    : A_DTS
    Duration                    : 1 h 48 min
    Bit rate mode               : Variable
    Bit rate                    : 4 040 kb/s
    Channel(s)                  : 8 channels
    Channel layout              : C L R LFE Lb Rb Lss Rss
    Sampling rate               : 48.0 kHz
    Frame rate                  : 93.750 FPS (512 SPF)
    Bit depth                   : 24 bits
    Compression mode            : Lossless
    Stream size                 : 3.05 GiB (4%)
    Language                    : English
    Default                     : No
    Forced                      : No

    Audio #4
    ID                          : 5
    Format                      : MLP FBA 16-ch
    Format/Info                 : Meridian Lossless Packing FBA with 16-channel presentation
    Commercial name             : Dolby TrueHD with Dolby Atmos
    Codec ID                    : A_TRUEHD
    Duration                    : 1 h 48 min
    Bit rate mode               : Variable
    Bit rate                    : 4 602 kb/s
    Maximum bit rate            : 6 954 kb/s
    Channel(s)                  : 8 channels
    Channel layout              : L R C LFE Ls Rs Lb Rb
    Sampling rate               : 48.0 kHz
    Frame rate                  : 1 200.000 FPS (40 SPF)
    Compression mode            : Lossless
    Stream size                 : 3.47 GiB (5%)
    Language                    : English
    Default                     : No
    Forced                      : No
    Number of dynamic objects   : 11
    Bed channel count           : 1 channel
    Bed channel configuration   : LFE

    Text #1
    ID                          : 6
    Format                      : UTF-8
    Codec ID                    : S_TEXT/UTF8
    Codec ID/Info               : UTF-8 Plain Text
    Duration                    : 1 h 42 min
    Bit rate                    : 1 b/s
    Frame rate                  : 0.006 FPS
    Count of elements           : 38
    Stream size                 : 992 Bytes (0%)
    Title                       : Latino Forzado
    Language                    : Spanish
    Default                     : Yes
    Forced                      : No

    Text #2
    ID                          : 7
    Format                      : UTF-8
    Codec ID                    : S_TEXT/UTF8
    Codec ID/Info               : UTF-8 Plain Text
    Duration                    : 1 h 42 min
    Bit rate                    : 59 b/s
    Frame rate                  : 0.197 FPS
    Count of elements           : 1209
    Stream size                 : 44.6 KiB (0%)
    Language                    : Spanish
    Default                     : No
    Forced                      : No

    Text #3
    ID                          : 8
    Format                      : PGS
    Muxing mode                 : zlib
    Codec ID                    : S_HDMV/PGS
    Codec ID/Info               : Picture based subtitle format used on BDs/HD-DVDs
    Duration                    : 1 h 42 min
    Bit rate                    : 985 b/s
    Frame rate                  : 0.012 FPS
    Count of elements           : 76
    Stream size                 : 743 KiB (0%)
    Title                       : Latino Forzado
    Language                    : Spanish
    Default                     : No
    Forced                      : No

    Text #4
    ID                          : 9
    Format                      : PGS
    Muxing mode                 : zlib
    Codec ID                    : S_HDMV/PGS
    Codec ID/Info               : Picture based subtitle format used on BDs/HD-DVDs
    Duration                    : 1 h 42 min
    Bit rate                    : 35.5 kb/s
    Frame rate                  : 0.396 FPS
    Count of elements           : 2442
    Stream size                 : 26.1 MiB (0%)
    Language                    : Spanish
    Default                     : No
    Forced                      : No

    Menu
    00:00:00.000                : en:Chapter 01
    00:02:58.511                : en:Chapter 02
    00:04:18.216                : en:Chapter 03
    00:12:45.389                : en:Chapter 04
    00:17:10.112                : en:Chapter 05
    00:21:17.359                : en:Chapter 06
    00:27:00.660                : en:Chapter 07
    00:34:16.429                : en:Chapter 08
    00:38:33.311                : en:Chapter 09
    00:46:14.062                : en:Chapter 10
    00:50:36.450                : en:Chapter 11
    00:55:33.621                : en:Chapter 12
    01:01:30.770                : en:Chapter 13
    01:07:15.197                : en:Chapter 14
    01:14:46.940                : en:Chapter 15
    01:28:01.276                : en:Chapter 16
    01:34:44.261                : en:Chapter 17
    01:37:47.027                : en:Chapter 18
    01:40:38.240                : en:Chapter 19
    01:43:26.325                : en:Chapter 20

     

  • Peso: 71.4 GiB

Sinopsis

Marty y Doc vuelven a hacerlo en esta alocada secuela del éxito de taquilla de 1985, ya que el dúo de viajeros en el tiempo se dirige al 2015 para cortar de raíz algunos problemas de la familia McFly. Pero las cosas salen mal gracias al matón Biff Tannen y un molesto almanaque deportivo. En un último intento por aclarar las cosas, Marty se encuentra con destino a 1955 y cara a cara con sus padres adolescentes, nuevamente.

 

 

Ficha técnica

Video trailer de la película

Enlaces de descarga

Rip de Bluray

Descargar Back to the Future Part II (1989) REMUX 4K HDR Latino – CMHDD




Aportes de DPeliculasHDmega la pass es:dpeliculashdmega.org Aportes de CinemaniaHD la pass es:cinemaniahdd.com Aportes recientes:cinemaniahdd.net
Guardado en : Aventura , Ciencia ficción , Comedia

Películas relacionadas

  • Viviendo con mi ex (2006) REMUX 1080p Latino-CMHDD

    Viviendo con mi ex (2006) REMUX 1080p Latino-CMHDD

    2006
    Viviendo con mi ex (2006) REMUX 1080p Latino-CMHDD

    1h 46m 2006

    Descargar Viviendo con mi ex (2006) REMUX 1080p Latino-CMHDD. Relato sobre las consecuencias de una ruptura...

    Director: Todd Amateau

    Género: Comedia

    Actores: William Dick

  • The Lego Movie (2014) REMUX 4K HDR Latino – CMHDD

    The Lego Movie (2014) REMUX 4K HDR Latino – CMHDD

    2014
    The Lego Movie (2014) REMUX 4K HDR Latino – CMHDD

    1h 40m 2014

    Película basada en los clásicos juguetes LEGO. Emmet, el protagonista de la película, trabaja como...

    Director: Vernessa Cook

    Género: Animación

    Actores: Will Forte

  • The Lego Movie (2014) REMUX 1080p Latino – CMHDD

    The Lego Movie (2014) REMUX 1080p Latino – CMHDD

    2014
    The Lego Movie (2014) REMUX 1080p Latino – CMHDD

    1h 40m 2014

    Película basada en los clásicos juguetes LEGO. Emmet, el protagonista de la película, trabaja como...

    Director: Vernessa Cook

    Género: Animación

    Actores: Will Forte

descargar Back to the Future Part II (1989) REMUX 4K HDR Latino – CMHDD 4K HDR 1080p gratis, Back to the Future Part II (1989) REMUX 4K HDR Latino – CMHDD 4K HDR mega 1 link, Back to the Future Part II (1989) REMUX 4K HDR Latino – CMHDD 4K HDR pelicula completa, descargar Back to the Future Part II (1989) REMUX 4K HDR Latino – CMHDD 4K HDR gratis en mega.

Back to the Future Part II (1989) REMUX 4K HDR Latino – CMHDD pelicula full hd, Back to the Future Part II (1989) REMUX 4K HDR Latino – CMHDD mega latino, Back to the Future Part II (1989) REMUX 4K HDR Latino – CMHDD 4k latino, Back to the Future Part II (1989) REMUX 4K HDR Latino – CMHDD pelicula completa, Back to the Future Part II (1989) REMUX 4K HDR Latino – CMHDD descargar gratis, descargar Back to the Future Part II (1989) REMUX 4K HDR Latino – CMHDD pelicula latino, Back to the Future Part II (1989) REMUX 4K HDR Latino – CMHDD 1 link mega, Back to the Future Part II (1989) REMUX 4K HDR Latino – CMHDD 1 link google drive, Back to the Future Part II (1989) REMUX 4K HDR Latino – CMHDD hd 1080p latino.
Comentarios 0