×

¿Problemas para descargar con Mozilla, EDGE? Deshabilita la opción "Abrir vinculos en una pestaña nueva" tal como lo muestra ésta imagen.

Back to the Future lll (1990) [REMASTERED] REMUX 1080p Latino – CMHDD

365 vistas

Información de Back to the Future lll (1990) [REMASTERED] REMUX 1080p Latino – CMHDD

Datos de la película

  • Calidad: Full 1080p
  • Audio: Español Latino DTS 5.1 BLURAY - Ingles DTS-HD 5.1 BLURAY
  • Subtitulos: Español Latino SRT- FORZADOS SRT
  • Resolución: 1920x1080p
  • Formato: MKV
  • Codec: H.264
  • Encoder: Dracarys
  • Mediainfo: Clic para Mostrar Datos Ver
  • Format                      : Matroska
    Format version              : Version 4
    File size                   : 27.4 GiB
    Duration                    : 1 h 58 min
    Overall bit rate mode       : Variable
    Overall bit rate            : 33.1 Mb/s
    Movie name                  : Back to the Future lll (1990) [REMASTERED] REMUX 1080p Latino - CMHDD
    Encoded date                : UTC 2020-11-05 23:37:19
    Writing application         : mkvmerge v51.0.0 ('I Wish') 64-bit
    Writing library             : libebml v1.4.0 + libmatroska v1.6.2

    Video
    ID                          : 1
    ID in the original source m : 4113 (0x1011)
    Format                      : AVC
    Format/Info                 : Advanced Video Codec
    Format profile              : High@L4.1
    Format settings             : CABAC / 4 Ref Frames
    Format settings, CABAC      : Yes
    Format settings, Reference  : 4 frames
    Codec ID                    : V_MPEG4/ISO/AVC
    Duration                    : 1 h 58 min
    Bit rate mode               : Variable
    Bit rate                    : 28.4 Mb/s
    Maximum bit rate            : 33.0 Mb/s
    Width                       : 1 920 pixels
    Height                      : 1 080 pixels
    Display aspect ratio        : 16:9
    Frame rate mode             : Constant
    Frame rate                  : 23.976 (24000/1001) FPS
    Color space                 : YUV
    Chroma subsampling          : 4:2:0
    Bit depth                   : 8 bits
    Scan type                   : Progressive
    Bits/(Pixel*Frame)          : 0.571
    Stream size                 : 23.5 GiB (86%)
    Language                    : English
    Default                     : No
    Forced                      : No
    Original source medium      : Blu-ray

    Audio #1
    ID                          : 2
    ID in the original source m : 4352 (0x1100)
    Format                      : DTS XLL
    Format/Info                 : Digital Theater Systems
    Commercial name             : DTS-HD Master Audio
    Codec ID                    : A_DTS
    Duration                    : 1 h 58 min
    Bit rate mode               : Variable
    Bit rate                    : 3 961 kb/s
    Channel(s)                  : 6 channels
    Channel layout              : C L R Ls Rs LFE
    Sampling rate               : 48.0 kHz
    Frame rate                  : 93.750 FPS (512 SPF)
    Bit depth                   : 24 bits
    Compression mode            : Lossless
    Stream size                 : 3.27 GiB (12%)
    Language                    : English
    Default                     : No
    Forced                      : No
    Original source medium      : Blu-ray

    Audio #2
    ID                          : 3
    Format                      : DTS
    Format/Info                 : Digital Theater Systems
    Codec ID                    : A_DTS
    Duration                    : 1 h 58 min
    Bit rate mode               : Constant
    Bit rate                    : 768 kb/s
    Channel(s)                  : 6 channels
    Channel layout              : C L R Ls Rs LFE
    Sampling rate               : 48.0 kHz
    Frame rate                  : 93.750 FPS (512 SPF)
    Bit depth                   : 24 bits
    Compression mode            : Lossy
    Delay relative to video     : 500 ms
    Stream size                 : 650 MiB (2%)
    Language                    : Spanish
    Default                     : Yes
    Forced                      : No

    Text #1
    ID                          : 4
    Format                      : UTF-8
    Codec ID                    : S_TEXT/UTF8
    Codec ID/Info               : UTF-8 Plain Text
    Duration                    : 1 h 48 min
    Bit rate                    : 57 b/s
    Count of elements           : 1254
    Stream size                 : 45.8 KiB (0%)
    Language                    : Spanish
    Default                     : No
    Forced                      : No

    Text #2
    ID                          : 5
    Format                      : UTF-8
    Codec ID                    : S_TEXT/UTF8
    Codec ID/Info               : UTF-8 Plain Text
    Duration                    : 1 h 38 min
    Bit rate                    : 0 b/s
    Count of elements           : 25
    Stream size                 : 627 Bytes (0%)
    Language                    : Spanish
    Default                     : Yes
    Forced                      : No

    Menu
    00:00:00.000                : en:Chapter 01
    00:02:51.004                : en:Chapter 02
    00:05:01.467                : en:Chapter 03
    00:12:42.678                : en:Chapter 04
    00:15:50.032                : en:Chapter 05
    00:22:15.876                : en:Chapter 06
    00:30:04.260                : en:Chapter 07
    00:33:16.786                : en:Chapter 08
    00:37:45.346                : en:Chapter 09
    00:41:54.970                : en:Chapter 10
    00:50:43.999                : en:Chapter 11
    00:56:59.332                : en:Chapter 12
    01:06:26.107                : en:Chapter 13
    01:16:23.745                : en:Chapter 14
    01:20:45.507                : en:Chapter 15
    01:30:34.345                : en:Chapter 16
    01:42:20.259                : en:Chapter 17
    01:46:07.903                : en:Chapter 18
    01:48:08.607                : en:Chapter 19
    01:51:53.123                : en:Chapter 20

  • Peso: 27.4 GiB

Sinopsis

Doc tiene el coche-máquina del tiempo averiado, y está prisionero en la época del salvaje oeste. Por su parte, Marty McFly está en 1955 y acaba de encontrar una carta escrita por Doc en 1885. En ella, Doc le pide que arregle el coche, pero que no vaya a rescatarlo pues se encuentra muy bien en el pasado. Sin embargo el muchacho irá en su búsqueda cuando descubre una vieja tumba en la que lee que su amigo murió en 1885.

Ficha técnica

Video trailer de la película

Enlaces de descarga

Rip de Bluray

Descargar Back to the Future lll (1990) [REMASTERED] REMUX 1080p Latino – CMHDD


Aportes de DPeliculasHDmega la pass es:dpeliculashdmega.org Aportes de CinemaniaHD la pass es:cinemaniahdd.com
Guardado en : Aventura , Ciencia ficción , Comedia

Películas relacionadas

descargar Back to the Future lll (1990) [REMASTERED] REMUX 1080p Latino – CMHDD Full 1080p 1080p gratis, Back to the Future lll (1990) [REMASTERED] REMUX 1080p Latino – CMHDD Full 1080p mega 1 link, Back to the Future lll (1990) [REMASTERED] REMUX 1080p Latino – CMHDD Full 1080p pelicula completa, descargar Back to the Future lll (1990) [REMASTERED] REMUX 1080p Latino – CMHDD Full 1080p gratis en mega.

Back to the Future lll (1990) [REMASTERED] REMUX 1080p Latino – CMHDD pelicula full hd, Back to the Future lll (1990) [REMASTERED] REMUX 1080p Latino – CMHDD mega latino, Back to the Future lll (1990) [REMASTERED] REMUX 1080p Latino – CMHDD 4k latino, Back to the Future lll (1990) [REMASTERED] REMUX 1080p Latino – CMHDD pelicula completa, Back to the Future lll (1990) [REMASTERED] REMUX 1080p Latino – CMHDD descargar gratis, descargar Back to the Future lll (1990) [REMASTERED] REMUX 1080p Latino – CMHDD pelicula latino, Back to the Future lll (1990) [REMASTERED] REMUX 1080p Latino – CMHDD 1 link mega, Back to the Future lll (1990) [REMASTERED] REMUX 1080p Latino – CMHDD 1 link google drive, Back to the Future lll (1990) [REMASTERED] REMUX 1080p Latino – CMHDD hd 1080p latino.
Comentarios 0