×

¿Problemas para descargar con Mozilla, EDGE? Deshabilita la opción "Abrir vinculos en una pestaña nueva" tal como lo muestra ésta imagen.

Back to the Future lll (1990) [REMASTERED] Full 1080p Latino – CMHDD

419 vistas

Información de Back to the Future lll (1990) [REMASTERED] Full 1080p Latino – CMHDD

Datos de la película

  • Calidad: Full 1080p
  • Audio: Español Latino DTS 5.1 BLURAY - Ingles DTS 5.1 BLURAY
  • Subtitulos: Español Latino SRT- FORZADOS SRT
  • Resolución: 1920x1080p
  • Formato: MKV
  • Codec: H.264
  • Encoder: Dracarys
  • Mediainfo: Clic para Mostrar Datos Ver
  • Format                      : Matroska
    Format version              : Version 4
    File size                   : 7.25 GiB
    Duration                    : 1 h 58 min
    Overall bit rate            : 8 760 kb/s
    Movie name                  : dpeliculashdmega.org
    Encoded date                : UTC 2017-10-19 07:55:48 / UTC 2017-10-16T06:36:38Z
    Writing application         : mkvmerge v10.0.0 ('To Drown In You') 64bit
    Writing library             : libebml v1.3.4 + libmatroska v1.4.5 / Lavf57.7.2

    Video
    ID                          : 1
    Format                      : AVC
    Format/Info                 : Advanced Video Codec
    Format profile              : High@L4.1
    Format settings             : CABAC / 4 Ref Frames
    Format settings, CABAC      : Yes
    Format settings, Reference  : 4 frames
    Codec ID                    : V_MPEG4/ISO/AVC
    Duration                    : 1 h 58 min
    Bit rate                    : 6 308 kb/s
    Width                       : 1 920 pixels
    Height                      : 1 080 pixels
    Display aspect ratio        : 16:9
    Frame rate mode             : Constant
    Frame rate                  : 23.976 (24000/1001) FPS
    Color space                 : YUV
    Chroma subsampling          : 4:2:0
    Bit depth                   : 8 bits
    Scan type                   : Progressive
    Bits/(Pixel*Frame)          : 0.127
    Stream size                 : 5.22 GiB (72%)
    Title                       : Regreso al futuro III (1990) Full 1080p Latino
    Writing library             : x264 core 148 r2708 86b7198
    Encoding settings           : cabac=1 / ref=4 / deblock=1:0:0 / analyse=0x3:0x133 / me=esa / subme=10 / psy=1 / psy_rd=1.00:0.00 / mixed_ref=1 / me_range=24 / chroma_me=1 / trellis=2 / 8x8dct=1 / cqm=0 / deadzone=21,11 / fast_pskip=1 / chroma_qp_offset=-2 / threads=12 / lookahead_threads=2 / sliced_threads=0 / nr=0 / decimate=1 / interlaced=0 / bluray_compat=0 / constrained_intra=0 / bframes=8 / b_pyramid=2 / b_adapt=2 / b_bias=0 / direct=3 / weightb=1 / open_gop=0 / weightp=2 / keyint=240 / keyint_min=24 / scenecut=40 / intra_refresh=0 / rc_lookahead=60 / rc=crf / mbtree=1 / crf=20.0 / qcomp=0.60 / qpmin=0 / qpmax=69 / qpstep=4 / vbv_maxrate=62500 / vbv_bufsize=78125 / crf_max=0.0 / nal_hrd=none / filler=0 / ip_ratio=1.40 / aq=1:1.00
    Language                    : English
    Default                     : Yes
    Forced                      : No
    Color range                 : Limited
    Color primaries             : BT.709
    Transfer characteristics    : BT.709
    Matrix coefficients         : BT.709
    Statistics Tags Issue       : mkvmerge v10.0.0 ('To Drown In You') 64bit 2017-10-19 07:55:48 / mkvmerge v10.0.0 ('To Drown In You') 64bit 2017-10-19 07:55:48 / UTC 2017-10-16T06:36:38Z
    FromStats_BitRate           : 6487389
    FromStats_Duration          : 01:58:17.633000000
    FromStats_FrameCount        : 170173
    FromStats_StreamSize        : 5755638850
    Duration_Source             : General_Duration

    Audio #1
    ID                          : 2
    Format                      : DTS
    Format/Info                 : Digital Theater Systems
    Codec ID                    : A_DTS
    Duration                    : 1 h 58 min
    Bit rate mode               : Constant
    Bit rate                    : 768 kb/s
    Channel(s)                  : 6 channels
    Channel layout              : C L R Ls Rs LFE
    Sampling rate               : 48.0 kHz
    Frame rate                  : 93.750 FPS (512 SPF)
    Bit depth                   : 24 bits
    Compression mode            : Lossy
    Stream size                 : 650 MiB (9%)
    Title                       : Latino-DTS
    Language                    : Spanish
    Default                     : Yes
    Forced                      : No
    Statistics Tags Issue       : mkvmerge v10.0.0 ('To Drown In You') 64bit 2017-10-19 07:55:48 / mkvmerge v10.0.0 ('To Drown In You') 64bit 2017-10-19 07:55:48 / UTC 2017-10-16T06:36:38Z
    FromStats_BitRate           : 768000
    FromStats_Duration          : 01:58:24.768000000
    FromStats_FrameCount        : 666072
    FromStats_StreamSize        : 682057728
    Duration_Source             : General_Duration

    Audio #2
    ID                          : 3
    Format                      : DTS
    Format/Info                 : Digital Theater Systems
    Codec ID                    : A_DTS
    Duration                    : 1 h 58 min
    Bit rate mode               : Constant
    Bit rate                    : 1 509 kb/s
    Channel(s)                  : 6 channels
    Channel layout              : C L R Ls Rs LFE
    Sampling rate               : 48.0 kHz
    Frame rate                  : 93.750 FPS (512 SPF)
    Bit depth                   : 24 bits
    Compression mode            : Lossy
    Stream size                 : 1.25 GiB (17%)
    Title                       : Ingles-DTS
    Language                    : English
    Default                     : No
    Forced                      : No
    Statistics Tags Issue       : mkvmerge v10.0.0 ('To Drown In You') 64bit 2017-10-19 07:55:48 / mkvmerge v10.0.0 ('To Drown In You') 64bit 2017-10-19 07:55:48 / UTC 2017-10-16T06:36:38Z
    FromStats_BitRate           : 1508999
    FromStats_Duration          : 01:58:17.643000000
    FromStats_FrameCount        : 665404
    FromStats_StreamSize        : 1338792848
    Duration_Source             : General_Duration

    Text #1
    ID                          : 4
    Format                      : UTF-8
    Codec ID                    : S_TEXT/UTF8
    Codec ID/Info               : UTF-8 Plain Text
    Title                       : Forzados
    Language                    : Spanish
    Default                     : Yes
    Forced                      : No
    Statistics Tags Issue       : mkvmerge v10.0.0 ('To Drown In You') 64bit 2017-10-19 07:55:48 / mkvmerge v10.0.0 ('To Drown In You') 64bit 2017-10-19 07:55:48 / UTC 2017-10-16T06:36:38Z
    FromStats_BitRate           : 0
    FromStats_Duration          : 01:38:04.503000000
    FromStats_FrameCount        : 25
    FromStats_StreamSize        : 627

    Text #2
    ID                          : 5
    Format                      : UTF-8
    Codec ID                    : S_TEXT/UTF8
    Codec ID/Info               : UTF-8 Plain Text
    Title                       : Completos
    Language                    : Spanish
    Default                     : No
    Forced                      : No
    Statistics Tags Issue       : mkvmerge v10.0.0 ('To Drown In You') 64bit 2017-10-19 07:55:48 / mkvmerge v10.0.0 ('To Drown In You') 64bit 2017-10-19 07:55:48 / UTC 2017-10-16T06:36:38Z
    FromStats_BitRate           : 57
    FromStats_Duration          : 01:48:46.484000000
    FromStats_FrameCount        : 1254
    FromStats_StreamSize        : 46943

    Menu
    00:00:00.000                : :Chapter 1
    00:02:50.337                : :Chapter 2
    00:05:01.259                : :Chapter 3
    00:12:42.095                : :Chapter 4
    00:15:49.490                : :Chapter 5
    00:22:15.209                : :Chapter 6
    00:30:03.677                : :Chapter 7
    00:33:16.244                : :Chapter 8
    00:37:44.763                : :Chapter 9
    00:41:54.387                : :Chapter 10
    00:50:43.332                : :Chapter 11
    00:56:58.790                : :Chapter 12
    01:06:25.440                : :Chapter 13
    01:16:23.079                : :Chapter 14
    01:20:44.840                : :Chapter 15
    01:30:33.803                : :Chapter 16
    01:42:19.759                : :Chapter 17
    01:46:07.236                : :Chapter 18
    01:48:07.940                : :Chapter 19
    01:51:52.915                : :Chapter 20

  • Peso: 7.25 GiB

Sinopsis

Doc tiene el coche-máquina del tiempo averiado, y está prisionero en la época del salvaje oeste. Por su parte, Marty McFly está en 1955 y acaba de encontrar una carta escrita por Doc en 1885. En ella, Doc le pide que arregle el coche, pero que no vaya a rescatarlo pues se encuentra muy bien en el pasado. Sin embargo el muchacho irá en su búsqueda cuando descubre una vieja tumba en la que lee que su amigo murió en 1885.

Ficha técnica

Video trailer de la película

Enlaces de descarga

Rip de Bluray

Descargar Back to the Future lll (1990) [REMASTERED] Full 1080p Latino – CMHDD




Aportes de DPeliculasHDmega la pass es:dpeliculashdmega.org Aportes de CinemaniaHD la pass es:cinemaniahdd.com

Películas relacionadas

descargar Back to the Future lll (1990) [REMASTERED] Full 1080p Latino – CMHDD Full 1080p 1080p gratis, Back to the Future lll (1990) [REMASTERED] Full 1080p Latino – CMHDD Full 1080p mega 1 link, Back to the Future lll (1990) [REMASTERED] Full 1080p Latino – CMHDD Full 1080p pelicula completa, descargar Back to the Future lll (1990) [REMASTERED] Full 1080p Latino – CMHDD Full 1080p gratis en mega.

Back to the Future lll (1990) [REMASTERED] Full 1080p Latino – CMHDD pelicula full hd, Back to the Future lll (1990) [REMASTERED] Full 1080p Latino – CMHDD mega latino, Back to the Future lll (1990) [REMASTERED] Full 1080p Latino – CMHDD 4k latino, Back to the Future lll (1990) [REMASTERED] Full 1080p Latino – CMHDD pelicula completa, Back to the Future lll (1990) [REMASTERED] Full 1080p Latino – CMHDD descargar gratis, descargar Back to the Future lll (1990) [REMASTERED] Full 1080p Latino – CMHDD pelicula latino, Back to the Future lll (1990) [REMASTERED] Full 1080p Latino – CMHDD 1 link mega, Back to the Future lll (1990) [REMASTERED] Full 1080p Latino – CMHDD 1 link google drive, Back to the Future lll (1990) [REMASTERED] Full 1080p Latino – CMHDD hd 1080p latino.
Comentarios 0