×

¿Problemas para descargar con Mozilla, EDGE? Deshabilita la opción "Abrir vinculos en una pestaña nueva" tal como lo muestra ésta imagen.

Back to the Future ll (1989) [REMASTERED] REMUX 1080p Latino – CMHDD

252 vistas

Información de Back to the Future ll (1989) [REMASTERED] REMUX 1080p Latino – CMHDD

Datos de la película

  • Calidad: Full 1080p
  • Audio: Español Latino DTS 5.1 BLURAY - Ingles DTS-HD 5.1 BLURAY
  • Subtitulos: Español Latino SRT- FORZADOS SRT
  • Resolución: 1920x1080p
  • Formato: MKV
  • Codec: H.264
  • Encoder: Dracarys
  • Mediainfo: Clic para Mostrar Datos Ver
  • Format                      : Matroska
    Format version              : Version 4
    File size                   : 26.0 GiB
    Duration                    : 1 h 48 min
    Overall bit rate mode       : Variable
    Overall bit rate            : 34.4 Mb/s
    Movie name                  : Back to the Future ll (1989) [REMASTERED] REMUX 1080p Latino - CMHDD
    Encoded date                : UTC 2020-11-05 23:35:56
    Writing application         : mkvmerge v51.0.0 ('I Wish') 64-bit
    Writing library             : libebml v1.4.0 + libmatroska v1.6.2

    Video
    ID                          : 1
    ID in the original source m : 4113 (0x1011)
    Format                      : AVC
    Format/Info                 : Advanced Video Codec
    Format profile              : High@L4.1
    Format settings             : CABAC / 4 Ref Frames
    Format settings, CABAC      : Yes
    Format settings, Reference  : 4 frames
    Codec ID                    : V_MPEG4/ISO/AVC
    Duration                    : 1 h 47 min
    Bit rate mode               : Variable
    Bit rate                    : 29.8 Mb/s
    Maximum bit rate            : 33.5 Mb/s
    Width                       : 1 920 pixels
    Height                      : 1 080 pixels
    Display aspect ratio        : 16:9
    Frame rate mode             : Constant
    Frame rate                  : 23.976 (24000/1001) FPS
    Color space                 : YUV
    Chroma subsampling          : 4:2:0
    Bit depth                   : 8 bits
    Scan type                   : Progressive
    Bits/(Pixel*Frame)          : 0.599
    Stream size                 : 22.5 GiB (87%)
    Language                    : English
    Default                     : No
    Forced                      : No
    Original source medium      : Blu-ray

    Audio #1
    ID                          : 2
    ID in the original source m : 4352 (0x1100)
    Format                      : DTS XLL
    Format/Info                 : Digital Theater Systems
    Commercial name             : DTS-HD Master Audio
    Codec ID                    : A_DTS
    Duration                    : 1 h 47 min
    Bit rate mode               : Variable
    Bit rate                    : 3 859 kb/s
    Channel(s)                  : 6 channels
    Channel layout              : C L R Ls Rs LFE
    Sampling rate               : 48.0 kHz
    Frame rate                  : 93.750 FPS (512 SPF)
    Bit depth                   : 24 bits
    Compression mode            : Lossless
    Stream size                 : 2.91 GiB (11%)
    Language                    : English
    Default                     : No
    Forced                      : No
    Original source medium      : Blu-ray

    Audio #2
    ID                          : 3
    Format                      : DTS
    Format/Info                 : Digital Theater Systems
    Codec ID                    : A_DTS
    Duration                    : 1 h 48 min
    Bit rate mode               : Constant
    Bit rate                    : 768 kb/s
    Channel(s)                  : 6 channels
    Channel layout              : C L R Ls Rs LFE
    Sampling rate               : 48.0 kHz
    Frame rate                  : 93.750 FPS (512 SPF)
    Bit depth                   : 24 bits
    Compression mode            : Lossy
    Delay relative to video     : 500 ms
    Stream size                 : 594 MiB (2%)
    Language                    : Spanish
    Default                     : Yes
    Forced                      : No

    Text #1
    ID                          : 4
    Format                      : UTF-8
    Codec ID                    : S_TEXT/UTF8
    Codec ID/Info               : UTF-8 Plain Text
    Duration                    : 1 h 42 min
    Bit rate                    : 58 b/s
    Count of elements           : 1249
    Stream size                 : 43.9 KiB (0%)
    Language                    : Spanish
    Default                     : No
    Forced                      : No

    Text #2
    ID                          : 5
    Format                      : UTF-8
    Codec ID                    : S_TEXT/UTF8
    Codec ID/Info               : UTF-8 Plain Text
    Duration                    : 1 h 42 min
    Bit rate                    : 1 b/s
    Count of elements           : 37
    Stream size                 : 976 Bytes (0%)
    Language                    : Spanish
    Default                     : Yes
    Forced                      : No

    Menu
    00:00:00.000                : en:Chapter 01
    00:02:56.176                : en:Chapter 02
    00:04:16.297                : en:Chapter 03
    00:12:43.053                : en:Chapter 04
    00:17:07.776                : en:Chapter 05
    00:21:15.190                : en:Chapter 06
    00:26:58.325                : en:Chapter 07
    00:34:14.093                : en:Chapter 08
    00:38:31.142                : en:Chapter 09
    00:46:11.727                : en:Chapter 10
    00:50:34.114                : en:Chapter 11
    00:55:31.286                : en:Chapter 12
    01:01:28.810                : en:Chapter 13
    01:07:12.862                : en:Chapter 14
    01:14:44.605                : en:Chapter 15
    01:27:59.274                : en:Chapter 16
    01:34:41.967                : en:Chapter 17
    01:37:44.692                : en:Chapter 18
    01:40:35.904                : en:Chapter 19
    01:43:24.156                : en:Chapter 20

  • Peso: 26.0 GiB

Sinopsis

Aunque a Marty McFly todavía le falta tiempo para asimilar el hecho de estar viviendo dentro de la familia perfecta gracias a su anterior viaje en el tiempo, no le queda ni espacio para respirar cuando su amigo Doc aparece de improviso con la máquina del tiempo (mucho más modernizada), e insta a que le acompañen él y su novia a viajar al futuro para solucionar un problema con la ley que tendrá uno de sus futuros hijos. En la tremenda vorágine futurista, con todo lo que ello conlleva, del Hill Valley de 2015, la presencia de tales viajeros temporales causará un efecto mayor que el que iban a arreglar. Un almanaque deportivo y la posesión del secreto de la existencia de la máquina del tiempo por parte del siempre villano Biff Bannett, serán los ingredientes que conjugarán una causa-efecto en el pasado, en el presente y en el propio futuro, que hará que Marty y Doc se tengan que emplear a fondo para poner fin a la catástrofe a la que les lleva el destino.

Ficha técnica

Video trailer de la película

Enlaces de descarga

Rip de Bluray

Descargar Back to the Future ll (1989) [REMASTERED] REMUX 1080p Latino – CMHDD


Aportes de DPeliculasHDmega la pass es:dpeliculashdmega.org Aportes de CinemaniaHD la pass es:cinemaniahdd.com

Películas relacionadas

  • Zola (2020) HD 1080p Latino

    Zola (2020) HD 1080p Latino

    2020
    Zola (2020) HD 1080p Latino

    1h 26m 2020

    Descargar Zola (2020) HD 1080p Latino. Una camarera accede a acompañar a una bailarina exótica, su...

    Director: Sheri Davani

    Género: Comedia

    Actores: Ts Madison

  • Zola (2020) PLACEBO Full HD 1080p Latino

    Zola (2020) PLACEBO Full HD 1080p Latino

    2020
    Zola (2020) PLACEBO Full HD 1080p Latino

    1h 26m 2020

    Descargar Zola (2020) PLACEBO Full HD 1080p Latino. Una camarera accede a acompañar a una bailarina...

    Director: Sheri Davani

    Género: Comedia

    Actores: Ts Madison

  • Zola (2020) REMUX 1080p Latino

    Zola (2020) REMUX 1080p Latino

    2020
    Zola (2020) REMUX 1080p Latino

    1h 26m 2020

    Descargar Zola (2020) REMUX 1080p Latino. Una camarera accede a acompañar a una bailarina exótica,...

    Director: Sheri Davani

    Género: Comedia

    Actores: Ts Madison

descargar Back to the Future ll (1989) [REMASTERED] REMUX 1080p Latino – CMHDD Full 1080p 1080p gratis, Back to the Future ll (1989) [REMASTERED] REMUX 1080p Latino – CMHDD Full 1080p mega 1 link, Back to the Future ll (1989) [REMASTERED] REMUX 1080p Latino – CMHDD Full 1080p pelicula completa, descargar Back to the Future ll (1989) [REMASTERED] REMUX 1080p Latino – CMHDD Full 1080p gratis en mega.

Back to the Future ll (1989) [REMASTERED] REMUX 1080p Latino – CMHDD pelicula full hd, Back to the Future ll (1989) [REMASTERED] REMUX 1080p Latino – CMHDD mega latino, Back to the Future ll (1989) [REMASTERED] REMUX 1080p Latino – CMHDD 4k latino, Back to the Future ll (1989) [REMASTERED] REMUX 1080p Latino – CMHDD pelicula completa, Back to the Future ll (1989) [REMASTERED] REMUX 1080p Latino – CMHDD descargar gratis, descargar Back to the Future ll (1989) [REMASTERED] REMUX 1080p Latino – CMHDD pelicula latino, Back to the Future ll (1989) [REMASTERED] REMUX 1080p Latino – CMHDD 1 link mega, Back to the Future ll (1989) [REMASTERED] REMUX 1080p Latino – CMHDD 1 link google drive, Back to the Future ll (1989) [REMASTERED] REMUX 1080p Latino – CMHDD hd 1080p latino.
Comentarios 0