×

¿Problemas para descargar con Mozilla, EDGE? Deshabilita la opción "Abrir vinculos en una pestaña nueva" tal como lo muestra ésta imagen.

Back to the Future ll (1989) [REMASTERED] Full 1080p Latino – CMHDD

460 vistas

Información de Back to the Future ll (1989) [REMASTERED] Full 1080p Latino – CMHDD

Datos de la película

  • Calidad: Full 1080p
  • Audio: Español Latino DTS 5.1 BLURAY - Ingles DTS 5.1 BLURAY
  • Subtitulos: Español Latino SRT- FORZADOS SRT
  • Resolución: 1920x1080p
  • Formato: MKV
  • Codec: H.264
  • Encoder: Dracarys
  • Mediainfo: Clic para Mostrar Datos Ver
  • Format                      : Matroska
    Format version              : Version 4
    File size                   : 6.45 GiB
    Duration                    : 1 h 48 min
    Overall bit rate            : 8 547 kb/s
    Movie name                  : dpeliculashdmega.org
    Encoded date                : UTC 2017-10-19 07:28:01 / UTC 2017-10-16T20:03:53Z
    Writing application         : mkvmerge v10.0.0 ('To Drown In You') 64bit
    Writing library             : libebml v1.3.4 + libmatroska v1.4.5 / Lavf57.7.2

    Video
    ID                          : 1
    Format                      : AVC
    Format/Info                 : Advanced Video Codec
    Format profile              : High@L4.1
    Format settings             : CABAC / 4 Ref Frames
    Format settings, CABAC      : Yes
    Format settings, Reference  : 4 frames
    Codec ID                    : V_MPEG4/ISO/AVC
    Duration                    : 1 h 48 min
    Bit rate                    : 6 100 kb/s
    Width                       : 1 920 pixels
    Height                      : 1 080 pixels
    Display aspect ratio        : 16:9
    Frame rate mode             : Constant
    Frame rate                  : 23.976 (24000/1001) FPS
    Color space                 : YUV
    Chroma subsampling          : 4:2:0
    Bit depth                   : 8 bits
    Scan type                   : Progressive
    Bits/(Pixel*Frame)          : 0.123
    Stream size                 : 4.61 GiB (71%)
    Title                       : Regreso al futuro II (1989) Full 1080p Latino
    Writing library             : x264 core 148 r2708 86b7198
    Encoding settings           : cabac=1 / ref=4 / deblock=1:0:0 / analyse=0x3:0x133 / me=esa / subme=10 / psy=1 / psy_rd=1.00:0.00 / mixed_ref=1 / me_range=24 / chroma_me=1 / trellis=2 / 8x8dct=1 / cqm=0 / deadzone=21,11 / fast_pskip=1 / chroma_qp_offset=-2 / threads=12 / lookahead_threads=2 / sliced_threads=0 / nr=0 / decimate=1 / interlaced=0 / bluray_compat=0 / constrained_intra=0 / bframes=8 / b_pyramid=2 / b_adapt=2 / b_bias=0 / direct=3 / weightb=1 / open_gop=0 / weightp=2 / keyint=240 / keyint_min=24 / scenecut=40 / intra_refresh=0 / rc_lookahead=60 / rc=crf / mbtree=1 / crf=20.0 / qcomp=0.60 / qpmin=0 / qpmax=69 / qpstep=4 / vbv_maxrate=62500 / vbv_bufsize=78125 / crf_max=0.0 / nal_hrd=none / filler=0 / ip_ratio=1.40 / aq=1:1.00
    Language                    : English
    Default                     : Yes
    Forced                      : No
    Color range                 : Limited
    Color primaries             : BT.709
    Transfer characteristics    : BT.709
    Matrix coefficients         : BT.709
    Statistics Tags Issue       : mkvmerge v10.0.0 ('To Drown In You') 64bit 2017-10-19 07:28:01 / mkvmerge v10.0.0 ('To Drown In You') 64bit 2017-10-19 07:28:01 / UTC 2017-10-16T20:03:53Z
    FromStats_BitRate           : 6274418
    FromStats_Duration          : 01:47:59.306000000
    FromStats_FrameCount        : 155348
    FromStats_StreamSize        : 5081734977
    Duration_Source             : General_Duration

    Audio #1
    ID                          : 2
    Format                      : DTS
    Format/Info                 : Digital Theater Systems
    Codec ID                    : A_DTS
    Duration                    : 1 h 48 min
    Bit rate mode               : Constant
    Bit rate                    : 768 kb/s
    Channel(s)                  : 6 channels
    Channel layout              : C L R Ls Rs LFE
    Sampling rate               : 48.0 kHz
    Frame rate                  : 93.750 FPS (512 SPF)
    Bit depth                   : 24 bits
    Compression mode            : Lossy
    Stream size                 : 594 MiB (9%)
    Title                       : Latino-DTS
    Language                    : Spanish
    Default                     : Yes
    Forced                      : No
    Statistics Tags Issue       : mkvmerge v10.0.0 ('To Drown In You') 64bit 2017-10-19 07:28:01 / mkvmerge v10.0.0 ('To Drown In You') 64bit 2017-10-19 07:28:01 / UTC 2017-10-16T20:03:53Z
    FromStats_BitRate           : 767999
    FromStats_Duration          : 01:48:05.899000000
    FromStats_FrameCount        : 608053
    FromStats_StreamSize        : 622646272
    Duration_Source             : General_Duration

    Audio #2
    ID                          : 3
    Format                      : DTS
    Format/Info                 : Digital Theater Systems
    Codec ID                    : A_DTS
    Duration                    : 1 h 48 min
    Bit rate mode               : Constant
    Bit rate                    : 1 509 kb/s
    Channel(s)                  : 6 channels
    Channel layout              : C L R Ls Rs LFE
    Sampling rate               : 48.0 kHz
    Frame rate                  : 93.750 FPS (512 SPF)
    Bit depth                   : 24 bits
    Compression mode            : Lossy
    Stream size                 : 1.14 GiB (18%)
    Title                       : Ingles-DTS
    Language                    : English
    Default                     : No
    Forced                      : No
    Statistics Tags Issue       : mkvmerge v10.0.0 ('To Drown In You') 64bit 2017-10-19 07:28:01 / mkvmerge v10.0.0 ('To Drown In You') 64bit 2017-10-19 07:28:01 / UTC 2017-10-16T20:03:53Z
    FromStats_BitRate           : 1508999
    FromStats_Duration          : 01:47:59.307000000
    FromStats_FrameCount        : 607435
    FromStats_StreamSize        : 1222159220
    Duration_Source             : General_Duration

    Text #1
    ID                          : 4
    Format                      : UTF-8
    Codec ID                    : S_TEXT/UTF8
    Codec ID/Info               : UTF-8 Plain Text
    Title                       : Forzados
    Language                    : Spanish
    Default                     : Yes
    Forced                      : No
    Statistics Tags Issue       : mkvmerge v10.0.0 ('To Drown In You') 64bit 2017-10-19 07:28:01 / mkvmerge v10.0.0 ('To Drown In You') 64bit 2017-10-19 07:28:01 / UTC 2017-10-16T20:03:53Z
    FromStats_BitRate           : 1
    FromStats_Duration          : 01:42:52.832000000
    FromStats_FrameCount        : 37
    FromStats_StreamSize        : 976

    Text #2
    ID                          : 5
    Format                      : UTF-8
    Codec ID                    : S_TEXT/UTF8
    Codec ID/Info               : UTF-8 Plain Text
    Title                       : Complatos
    Language                    : Spanish
    Default                     : No
    Forced                      : No
    Statistics Tags Issue       : mkvmerge v10.0.0 ('To Drown In You') 64bit 2017-10-19 07:28:01 / mkvmerge v10.0.0 ('To Drown In You') 64bit 2017-10-19 07:28:01 / UTC 2017-10-16T20:03:53Z
    FromStats_BitRate           : 58
    FromStats_Duration          : 01:42:53.000000000
    FromStats_FrameCount        : 1249
    FromStats_StreamSize        : 44970

    Menu
    00:00:00.000                : :Chapter 1
    00:02:57.511                : :Chapter 2
    00:04:17.591                : :Chapter 3
    00:12:44.305                : :Chapter 4
    00:17:08.986                : :Chapter 5
    00:21:16.609                : :Chapter 6
    00:26:59.660                : :Chapter 7
    00:34:15.303                : :Chapter 8
    00:38:32.268                : :Chapter 9
    00:46:13.062                : :Chapter 10
    00:50:35.533                : :Chapter 11
    00:55:32.412                : :Chapter 12
    01:01:30.145                : :Chapter 13
    01:07:14.197                : :Chapter 14
    01:14:45.940                : :Chapter 15
    01:28:00.609                : :Chapter 16
    01:34:43.303                : :Chapter 17
    01:37:46.027                : :Chapter 18
    01:40:36.989                : :Chapter 19
    01:43:25.491                : :Chapter 20

  • Peso: 6.45 GiB

Sinopsis

Aunque a Marty McFly todavía le falta tiempo para asimilar el hecho de estar viviendo dentro de la familia perfecta gracias a su anterior viaje en el tiempo, no le queda ni espacio para respirar cuando su amigo Doc aparece de improviso con la máquina del tiempo (mucho más modernizada), e insta a que le acompañen él y su novia a viajar al futuro para solucionar un problema con la ley que tendrá uno de sus futuros hijos. En la tremenda vorágine futurista, con todo lo que ello conlleva, del Hill Valley de 2015, la presencia de tales viajeros temporales causará un efecto mayor que el que iban a arreglar. Un almanaque deportivo y la posesión del secreto de la existencia de la máquina del tiempo por parte del siempre villano Biff Bannett, serán los ingredientes que conjugarán una causa-efecto en el pasado, en el presente y en el propio futuro, que hará que Marty y Doc se tengan que emplear a fondo para poner fin a la catástrofe a la que les lleva el destino.

Ficha técnica

Video trailer de la película

Enlaces de descarga

Rip de Bluray

Descargar Back to the Future ll (1989) [REMASTERED] Full 1080p Latino – CMHDD




Aportes de DPeliculasHDmega la pass es:dpeliculashdmega.org Aportes de CinemaniaHD la pass es:cinemaniahdd.com

Películas relacionadas

  • Paradise Highway (2022) PLACEBO Full HD 1080p Latino

    Paradise Highway (2022) PLACEBO Full HD 1080p Latino

    2022
    Paradise Highway (2022) PLACEBO Full HD 1080p Latino

    1h 55m 2022

    Descargar Paradise Highway (2022) PLACEBO Full HD 1080p Latino. Un camionero se ha visto obligado a pasar...

    Director: Anna Gutto

    Género: Crimen

    Actores: Xavier Scott Evans

  • Shotgun Wedding (2022) AMZN WEB-DL 1080p Latino

    Shotgun Wedding (2022) AMZN WEB-DL 1080p Latino

    2022
    Shotgun Wedding (2022) AMZN WEB-DL 1080p Latino

    1h 41m 2022

    Darcy y Tom reúnen a sus familias para la boda de destino definitiva, pero cuando toman como rehenes...

    Director: Jason Moore

    Género: Acción

    Actores: Steve Coulter

  • M3GAN (2023) AMZN WEB-DL 4K UHD HDR Latino

    M3GAN (2023) AMZN WEB-DL 4K UHD HDR Latino

    2022
    M3GAN (2023) AMZN WEB-DL 4K UHD HDR Latino

    1h 42m 2022

    Descargar M3GAN (2023) AMZN WEB-DL 4K UHD HDR Latino. Cuando Gemma se convierte en la cuidadora de su...

    Director: Stephen W. Moore

    Género: 4K HDR

    Actores: Violet McGraw

  • M3GAN (2022) MA WEB-DL 1080p Latino

    M3GAN (2022) MA WEB-DL 1080p Latino

    2022
    M3GAN (2022) MA WEB-DL 1080p Latino

    1h 42m 2022

    Descargar M3GAN (2022) MA WEB-DL 1080p Latino. Cuando Gemma se convierte en la cuidadora de su sobrina...

    Director: Stephen W. Moore

    Género: Ciencia ficción

    Actores: Violet McGraw

  • Mar de sangre (2022) WEB-DL 1080p Latino

    Mar de sangre (2022) WEB-DL 1080p Latino

    2022
    Mar de sangre (2022) WEB-DL 1080p Latino

    1h 27m 2022

    Descargar Mar de sangre (2022) WEB-DL 1080p Latino. Un grupo de amigos que disfrutan de un fin de semana...

    Director: James Nunn

    Género: Acción

    Actores: Thomas Michael Flynn

descargar Back to the Future ll (1989) [REMASTERED] Full 1080p Latino – CMHDD Full 1080p 1080p gratis, Back to the Future ll (1989) [REMASTERED] Full 1080p Latino – CMHDD Full 1080p mega 1 link, Back to the Future ll (1989) [REMASTERED] Full 1080p Latino – CMHDD Full 1080p pelicula completa, descargar Back to the Future ll (1989) [REMASTERED] Full 1080p Latino – CMHDD Full 1080p gratis en mega.

Back to the Future ll (1989) [REMASTERED] Full 1080p Latino – CMHDD pelicula full hd, Back to the Future ll (1989) [REMASTERED] Full 1080p Latino – CMHDD mega latino, Back to the Future ll (1989) [REMASTERED] Full 1080p Latino – CMHDD 4k latino, Back to the Future ll (1989) [REMASTERED] Full 1080p Latino – CMHDD pelicula completa, Back to the Future ll (1989) [REMASTERED] Full 1080p Latino – CMHDD descargar gratis, descargar Back to the Future ll (1989) [REMASTERED] Full 1080p Latino – CMHDD pelicula latino, Back to the Future ll (1989) [REMASTERED] Full 1080p Latino – CMHDD 1 link mega, Back to the Future ll (1989) [REMASTERED] Full 1080p Latino – CMHDD 1 link google drive, Back to the Future ll (1989) [REMASTERED] Full 1080p Latino – CMHDD hd 1080p latino.
Comentarios 0