×

¿Problemas para descargar con Mozilla, EDGE? Deshabilita la opción "Abrir vinculos en una pestaña nueva" tal como lo muestra ésta imagen.

Volver al futuro Parte III (1990) REMASTERED 1080p Latino

387 vistas

Información de Volver al futuro Parte III (1990) REMASTERED 1080p Latino

Datos de la película

  • Calidad: 1080p
  • Audio: Español Latino AC3 5.1 BLURAY - Ingles AC3 5.1 BLURAY
  • Subtitulos: Español Latino SRT - Ingles SRT
  • Resolución: 1920x1036p
  • Formato: MKV
  • Codec: H.264
  • Encoder: Dracarys
  • Mediainfo: Clic para Mostrar Datos Ver
  • Volver Al Futuro III (1990) REMASTERED HD 1080p Latino-CMHDD.mkv
    Format                      : Matroska
    Format version              : Version 4
    File size                   : 3.89 GiB
    Duration                    : 1 h 58 min
    Overall bit rate            : 4 698 kb/s
    Movie name                  : Back To The Future Part III (1990) CinemaniaHDD.Net
    Encoded date                : UTC 2020-11-08 09:03:09
    Writing application         : mkvmerge v51.0.0 ('I Wish') 64-bit
    Writing library             : libebml v1.4.0 + libmatroska v1.6.2
    Attachments                 : CINEMANIAHD.png

    Video
    ID                          : 1
    Format                      : AVC
    Format/Info                 : Advanced Video Codec
    Format profile              : High@L4.1
    Format settings             : CABAC / 4 Ref Frames
    Format settings, CABAC      : Yes
    Format settings, Reference  : 4 frames
    Codec ID                    : V_MPEG4/ISO/AVC
    Duration                    : 1 h 58 min
    Bit rate                    : 3 500 kb/s
    Width                       : 1 920 pixels
    Height                      : 1 036 pixels
    Display aspect ratio        : 1.85:1
    Frame rate mode             : Constant
    Frame rate                  : 23.976 (24000/1001) FPS
    Color space                 : YUV
    Chroma subsampling          : 4:2:0
    Bit depth                   : 8 bits
    Scan type                   : Progressive
    Bits/(Pixel*Frame)          : 0.073
    Stream size                 : 2.83 GiB (73%)
    Title                       : HD1080p [CinemaniaHDD]
    Writing library             : x264 core 157 r2935 545de2f
    Encoding settings           : cabac=1 / ref=4 / deblock=1:0:0 / analyse=0x3:0x113 / me=hex / subme=8 / psy=1 / psy_rd=1.00:0.00 / mixed_ref=1 / me_range=16 / chroma_me=1 / trellis=2 / 8x8dct=1 / cqm=0 / deadzone=21,11 / fast_pskip=1 / chroma_qp_offset=-2 / threads=24 / lookahead_threads=4 / sliced_threads=0 / nr=0 / decimate=1 / interlaced=0 / bluray_compat=0 / constrained_intra=0 / bframes=3 / b_pyramid=2 / b_adapt=1 / b_bias=0 / direct=3 / weightb=1 / open_gop=0 / weightp=2 / keyint=240 / keyint_min=24 / scenecut=40 / intra_refresh=0 / rc_lookahead=50 / rc=abr / mbtree=1 / bitrate=3500 / ratetol=1.0 / qcomp=0.60 / qpmin=0 / qpmax=69 / qpstep=4 / vbv_maxrate=62500 / vbv_bufsize=78125 / nal_hrd=none / filler=0 / ip_ratio=1.40 / aq=1:1.00
    Default                     : Yes
    Forced                      : No
    Color range                 : Limited
    Color primaries             : BT.709
    Transfer characteristics    : BT.709
    Matrix coefficients         : BT.709

    Audio #1
    ID                          : 2
    Format                      : AC-3
    Format/Info                 : Audio Coding 3
    Commercial name             : Dolby Digital
    Codec ID                    : A_AC3
    Duration                    : 1 h 58 min
    Bit rate mode               : Constant
    Bit rate                    : 640 kb/s
    Channel(s)                  : 6 channels
    Channel layout              : L R C LFE Ls Rs
    Sampling rate               : 48.0 kHz
    Frame rate                  : 31.250 FPS (1536 SPF)
    Compression mode            : Lossy
    Delay relative to video     : 495 ms
    Stream size                 : 542 MiB (14%)
    Title                       : Español Latino [CinemaniaHDD]
    Language                    : Spanish
    Service kind                : Complete Main
    Default                     : Yes
    Forced                      : No

    Audio #2
    ID                          : 3
    Format                      : AC-3
    Format/Info                 : Audio Coding 3
    Commercial name             : Dolby Digital
    Codec ID                    : A_AC3
    Duration                    : 1 h 58 min
    Bit rate mode               : Constant
    Bit rate                    : 640 kb/s
    Channel(s)                  : 6 channels
    Channel layout              : L R C LFE Ls Rs
    Sampling rate               : 48.0 kHz
    Frame rate                  : 31.250 FPS (1536 SPF)
    Compression mode            : Lossy
    Delay relative to video     : -5 ms
    Stream size                 : 542 MiB (14%)
    Title                       : Ingles [CinemaniaHDD]
    Language                    : English
    Service kind                : Complete Main
    Default                     : No
    Forced                      : No

    Text #1
    ID                          : 4
    Format                      : UTF-8
    Codec ID                    : S_TEXT/UTF8
    Codec ID/Info               : UTF-8 Plain Text
    Duration                    : 1 h 38 min
    Bit rate                    : 1 b/s
    Count of elements           : 31
    Stream size                 : 823 Bytes (0%)
    Title                       : Forzados-SRT [CinemaniaHDD]
    Language                    : Spanish
    Default                     : Yes
    Forced                      : No

    Text #2
    ID                          : 5
    Format                      : UTF-8
    Codec ID                    : S_TEXT/UTF8
    Codec ID/Info               : UTF-8 Plain Text
    Duration                    : 1 h 50 min
    Bit rate                    : 52 b/s
    Count of elements           : 1211
    Stream size                 : 42.5 KiB (0%)
    Title                       : Español-SRT [CinemaniaHDD]
    Language                    : Spanish
    Default                     : No
    Forced                      : No

    Text #3
    ID                          : 6
    Format                      : UTF-8
    Codec ID                    : S_TEXT/UTF8
    Codec ID/Info               : UTF-8 Plain Text
    Duration                    : 1 h 52 min
    Bit rate                    : 59 b/s
    Count of elements           : 1551
    Stream size                 : 48.9 KiB (0%)
    Title                       : Ingles-SRT [CinemaniaHDD]
    Language                    : English
    Default                     : No
    Forced                      : No

    Menu
    00:00:01.668                : en:Back Again
    00:02:51.004                : en:Main Titles
    00:05:01.801                : en:A Letter From Doc
    00:12:42.678                : en:Doc's Destiny
    00:15:50.032                : en:Back to 1885
    00:22:15.876                : en:Clint Eastwood?
    00:30:04.260                : en:Mad Dog
    00:33:16.786                : en:Reunited
    00:37:45.346                : en:Out of Gas
    00:41:54.970                : en:Clara
    00:50:43.999                : en:The Town Festival
    00:56:59.332                : en:Trouble With Tannen
    01:06:26.107                : en:The Course of the Future
    01:16:23.745                : en:Late for a Train
    01:20:45.507                : en:Showdown
    01:30:34.345                : en:Racing Against Time
    01:42:20.426                : en:Back to Normal
    01:46:07.903                : en:Marty's Choice
    01:48:08.607                : en:Meet the Family
    01:51:53.498                : en:End Titles

  • Peso: 3.89 GiB

Sinopsis

Descargar Volver al futuro Parte III (1990) REMASTERED 1080p Latino. Doc tiene el coche-máquina del tiempo averiado, y está prisionero en la época del salvaje oeste. Por su parte, Marty McFly está en 1955 y acaba de encontrar una carta escrita por Doc en 1885. En ella, Doc le pide que arregle el coche, pero que no vaya a rescatarlo pues se encuentra muy bien en el pasado. Sin embargo el muchacho irá en su búsqueda cuando descubre una vieja tumba en la que lee que su amigo murió en 1885.

Ficha técnica

Video trailer de la película

Enlaces de descarga

Rip de Bluray

Descargar Volver al futuro Parte III (1990) REMASTERED 1080p Latino




Aportes de DPeliculasHDmega la pass es:dpeliculashdmega.org Aportes de CinemaniaHD la pass es:cinemaniahdd.com

Películas relacionadas

descargar Volver al futuro Parte III (1990) REMASTERED 1080p Latino 1080p 1080p gratis, Volver al futuro Parte III (1990) REMASTERED 1080p Latino 1080p mega 1 link, Volver al futuro Parte III (1990) REMASTERED 1080p Latino 1080p pelicula completa, descargar Volver al futuro Parte III (1990) REMASTERED 1080p Latino 1080p gratis en mega.

Volver al futuro Parte III (1990) REMASTERED 1080p Latino pelicula full hd, Volver al futuro Parte III (1990) REMASTERED 1080p Latino mega latino, Volver al futuro Parte III (1990) REMASTERED 1080p Latino 4k latino, Volver al futuro Parte III (1990) REMASTERED 1080p Latino pelicula completa, Volver al futuro Parte III (1990) REMASTERED 1080p Latino descargar gratis, descargar Volver al futuro Parte III (1990) REMASTERED 1080p Latino pelicula latino, Volver al futuro Parte III (1990) REMASTERED 1080p Latino 1 link mega, Volver al futuro Parte III (1990) REMASTERED 1080p Latino 1 link google drive, Volver al futuro Parte III (1990) REMASTERED 1080p Latino hd 1080p latino.
Comentarios 0