×

¿Problemas para descargar con Mozilla, EDGE? Deshabilita la opción "Abrir vinculos en una pestaña nueva" tal como lo muestra ésta imagen.

Back to the Future (1985) [REMASTERED] REMUX 1080p Latino – CMHDD

361 vistas

Información de Back to the Future (1985) [REMASTERED] REMUX 1080p Latino – CMHDD

Datos de la película

  • Calidad: Full 1080p
  • Audio: Español Latino DTS 5.1 BLURAY - Ingles DTS-HD 5.1 BLURAY
  • Subtitulos: Español Latino SRT- FORZADOS SRT
  • Resolución: 1920x1080p
  • Formato: MKV
  • Codec: H.264
  • Encoder: Dracarys
  • Mediainfo: Clic para Mostrar Datos Ver
  • Format                      : Matroska
    Format version              : Version 4
    File size                   : 22.1 GiB
    Duration                    : 1 h 56 min
    Overall bit rate mode       : Variable
    Overall bit rate            : 27.2 Mb/s
    Movie name                  : Back to the Future (1985) [REMASTERED] REMUX 1080p Latino - CMHDD
    Encoded date                : UTC 2020-11-05 23:33:51
    Writing application         : mkvmerge v51.0.0 ('I Wish') 64-bit
    Writing library             : libebml v1.4.0 + libmatroska v1.6.2

    Video
    ID                          : 1
    ID in the original source m : 4113 (0x1011)
    Format                      : AVC
    Format/Info                 : Advanced Video Codec
    Format profile              : High@L4.1
    Format settings             : CABAC / 4 Ref Frames
    Format settings, CABAC      : Yes
    Format settings, Reference  : 4 frames
    Codec ID                    : V_MPEG4/ISO/AVC
    Duration                    : 1 h 56 min
    Bit rate mode               : Variable
    Bit rate                    : 22.7 Mb/s
    Maximum bit rate            : 33.0 Mb/s
    Width                       : 1 920 pixels
    Height                      : 1 080 pixels
    Display aspect ratio        : 16:9
    Frame rate mode             : Constant
    Frame rate                  : 23.976 (24000/1001) FPS
    Color space                 : YUV
    Chroma subsampling          : 4:2:0
    Bit depth                   : 8 bits
    Scan type                   : Progressive
    Bits/(Pixel*Frame)          : 0.457
    Stream size                 : 18.4 GiB (84%)
    Language                    : English
    Default                     : No
    Forced                      : No
    Original source medium      : Blu-ray

    Audio #1
    ID                          : 2
    ID in the original source m : 4352 (0x1100)
    Format                      : DTS XLL
    Format/Info                 : Digital Theater Systems
    Commercial name             : DTS-HD Master Audio
    Codec ID                    : A_DTS
    Duration                    : 1 h 56 min
    Bit rate mode               : Variable
    Bit rate                    : 3 706 kb/s
    Channel(s)                  : 6 channels
    Channel layout              : C L R Ls Rs LFE
    Sampling rate               : 48.0 kHz
    Frame rate                  : 93.750 FPS (512 SPF)
    Bit depth                   : 24 bits
    Compression mode            : Lossless
    Stream size                 : 3.00 GiB (14%)
    Language                    : English
    Default                     : No
    Forced                      : No
    Original source medium      : Blu-ray

    Audio #2
    ID                          : 3
    Format                      : DTS
    Format/Info                 : Digital Theater Systems
    Codec ID                    : A_DTS
    Duration                    : 1 h 56 min
    Bit rate mode               : Constant
    Bit rate                    : 768 kb/s
    Channel(s)                  : 6 channels
    Channel layout              : C L R Ls Rs LFE
    Sampling rate               : 48.0 kHz
    Frame rate                  : 93.750 FPS (512 SPF)
    Bit depth                   : 24 bits
    Compression mode            : Lossy
    Delay relative to video     : 500 ms
    Stream size                 : 638 MiB (3%)
    Language                    : Spanish
    Default                     : Yes
    Forced                      : No

    Text #1
    ID                          : 4
    Format                      : UTF-8
    Codec ID                    : S_TEXT/UTF8
    Codec ID/Info               : UTF-8 Plain Text
    Duration                    : 1 h 50 min
    Bit rate                    : 58 b/s
    Count of elements           : 1339
    Stream size                 : 46.9 KiB (0%)
    Language                    : Spanish
    Default                     : No
    Forced                      : No

    Text #2
    ID                          : 5
    Format                      : UTF-8
    Codec ID                    : S_TEXT/UTF8
    Codec ID/Info               : UTF-8 Plain Text
    Duration                    : 1 h 47 min
    Bit rate                    : 0 b/s
    Count of elements           : 17
    Stream size                 : 371 Bytes (0%)
    Language                    : Spanish
    Default                     : Yes
    Forced                      : No

    Menu
    00:00:00.000                : en:Chapter 01
    00:04:14.212                : en:Chapter 02
    00:06:47.949                : en:Chapter 03
    00:11:45.913                : en:Chapter 04
    00:18:04.833                : en:Chapter 05
    00:28:12.941                : en:Chapter 06
    00:31:31.347                : en:Chapter 07
    00:38:41.360                : en:Chapter 08
    00:41:22.980                : en:Chapter 09
    00:47:54.037                : en:Chapter 10
    00:55:53.808                : en:Chapter 11
    00:58:50.527                : en:Chapter 12
    01:05:17.455                : en:Chapter 13
    01:16:40.971                : en:Chapter 14
    01:20:15.310                : en:Chapter 15
    01:27:23.988                : en:Chapter 16
    01:31:12.717                : en:Chapter 17
    01:41:41.220                : en:Chapter 18
    01:46:42.104                : en:Chapter 19
    01:51:25.178                : en:Chapter 20

  • Peso: 22.1 GiB

Sinopsis

Marty McFly es un adolescente amigo de Doc, un científico a los que todos menos él toman por chiflado. Cuando Doc crea una máquina para viajar en el tiempo en forma de un automóvil deportivo, Marty viaja accidentalmente al año 1955. Allí se encontrará con sus padres cuando eran jóvenes, pero impide su primer encuentro. A partir de entonces, y con el tiempo en su contra, McFly deberá conseguir que se enamoren para que se casen y él no deje de existir.

Ficha técnica

Video trailer de la película

Enlaces de descarga

Rip de Bluray

Descargar Back to the Future (1985) [REMASTERED] REMUX 1080p Latino – CMHDD


Aportes de DPeliculasHDmega la pass es:dpeliculashdmega.org Aportes de CinemaniaHD la pass es:cinemaniahdd.com

Películas relacionadas

  • M3GAN (2023) AMZN WEB-DL 4K UHD HDR Latino

    M3GAN (2023) AMZN WEB-DL 4K UHD HDR Latino

    2022
    M3GAN (2023) AMZN WEB-DL 4K UHD HDR Latino

    1h 42m 2022

    Descargar M3GAN (2023) AMZN WEB-DL 4K UHD HDR Latino. Cuando Gemma se convierte en la cuidadora de su...

    Director: Stephen W. Moore

    Género: 4K HDR

    Actores: Violet McGraw

  • M3GAN (2022) MA WEB-DL 1080p Latino

    M3GAN (2022) MA WEB-DL 1080p Latino

    2022
    M3GAN (2022) MA WEB-DL 1080p Latino

    1h 42m 2022

    Descargar M3GAN (2022) MA WEB-DL 1080p Latino. Cuando Gemma se convierte en la cuidadora de su sobrina...

    Director: Stephen W. Moore

    Género: Ciencia ficción

    Actores: Violet McGraw

  • Mar de sangre (2022) WEB-DL 1080p Latino

    Mar de sangre (2022) WEB-DL 1080p Latino

    2022
    Mar de sangre (2022) WEB-DL 1080p Latino

    1h 27m 2022

    Descargar Mar de sangre (2022) WEB-DL 1080p Latino. Un grupo de amigos que disfrutan de un fin de semana...

    Director: James Nunn

    Género: Acción

    Actores: Thomas Michael Flynn

  • Noche sin paz (2022) PLACEBO Full HD 1080p Latino

    Noche sin paz (2022) PLACEBO Full HD 1080p Latino

    2022
    Noche sin paz (2022) PLACEBO Full HD 1080p Latino

    1h 41m 2022

    Descargar Noche sin paz (2022) PLACEBO Full HD 1080p Latino. Cuando un equipo de mercenarios irrumpe...

    Director: Tyshana Hobson

    Género: Acción

    Actores: Yoon Cha-Lee

  • Noche sin paz (2022) HD 1080p Latino

    Noche sin paz (2022) HD 1080p Latino

    2022
    Noche sin paz (2022) HD 1080p Latino

    1h 41m 2022

    Descargar Noche sin paz (2022) HD 1080p Latino. Cuando un equipo de mercenarios irrumpe en Nochebuena...

    Director: Tyshana Hobson

    Género: Acción

    Actores: Yoon Cha-Lee

descargar Back to the Future (1985) [REMASTERED] REMUX 1080p Latino – CMHDD Full 1080p 1080p gratis, Back to the Future (1985) [REMASTERED] REMUX 1080p Latino – CMHDD Full 1080p mega 1 link, Back to the Future (1985) [REMASTERED] REMUX 1080p Latino – CMHDD Full 1080p pelicula completa, descargar Back to the Future (1985) [REMASTERED] REMUX 1080p Latino – CMHDD Full 1080p gratis en mega.

Back to the Future (1985) [REMASTERED] REMUX 1080p Latino – CMHDD pelicula full hd, Back to the Future (1985) [REMASTERED] REMUX 1080p Latino – CMHDD mega latino, Back to the Future (1985) [REMASTERED] REMUX 1080p Latino – CMHDD 4k latino, Back to the Future (1985) [REMASTERED] REMUX 1080p Latino – CMHDD pelicula completa, Back to the Future (1985) [REMASTERED] REMUX 1080p Latino – CMHDD descargar gratis, descargar Back to the Future (1985) [REMASTERED] REMUX 1080p Latino – CMHDD pelicula latino, Back to the Future (1985) [REMASTERED] REMUX 1080p Latino – CMHDD 1 link mega, Back to the Future (1985) [REMASTERED] REMUX 1080p Latino – CMHDD 1 link google drive, Back to the Future (1985) [REMASTERED] REMUX 1080p Latino – CMHDD hd 1080p latino.
Comentarios 0