×

¿Problemas para descargar con Mozilla, EDGE? Deshabilita la opción "Abrir vinculos en una pestaña nueva" tal como lo muestra ésta imagen.

Back to the Future (1985) [REMASTERED] Full 1080p Latino – CMHDD

456 vistas

Información de Back to the Future (1985) [REMASTERED] Full 1080p Latino – CMHDD

Datos de la película

  • Calidad: Full 1080p
  • Audio: Español Latino DTS 5.1 BLURAY - Ingles DTS 5.1 BLURAY
  • Subtitulos: Español Latino SRT- FORZADOS SRT
  • Resolución: 1920x1080p
  • Formato: MKV
  • Codec: H.264
  • Encoder: Dracarys
  • Mediainfo: Clic para Mostrar Datos Ver
  • Format                      : Matroska
    Format version              : Version 4
    File size                   : 11.2 GiB
    Duration                    : 1 h 56 min
    Overall bit rate            : 13.8 Mb/s
    Movie name                  : dpeliculashdmega.org
    Encoded date                : UTC 2017-10-19 06:45:19 / UTC 2017-10-18T18:14:27Z
    Writing application         : mkvmerge v10.0.0 ('To Drown In You') 64bit
    Writing library             : libebml v1.3.4 + libmatroska v1.4.5 / Lavf57.7.2

    Video
    ID                          : 1
    Format                      : AVC
    Format/Info                 : Advanced Video Codec
    Format profile              : High@L4.1
    Format settings             : CABAC / 4 Ref Frames
    Format settings, CABAC      : Yes
    Format settings, Reference  : 4 frames
    Codec ID                    : V_MPEG4/ISO/AVC
    Duration                    : 1 h 56 min
    Bit rate                    : 11.2 Mb/s
    Width                       : 1 920 pixels
    Height                      : 1 080 pixels
    Display aspect ratio        : 16:9
    Frame rate mode             : Constant
    Frame rate                  : 23.976 (24000/1001) FPS
    Color space                 : YUV
    Chroma subsampling          : 4:2:0
    Bit depth                   : 8 bits
    Scan type                   : Progressive
    Bits/(Pixel*Frame)          : 0.225
    Stream size                 : 9.09 GiB (81%)
    Title                       : Regreso al futuro (1985) Full 1080p Latino
    Writing library             : x264 core 148 r2708 86b7198
    Encoding settings           : cabac=1 / ref=4 / deblock=1:0:0 / analyse=0x3:0x133 / me=esa / subme=10 / psy=1 / psy_rd=1.00:0.00 / mixed_ref=1 / me_range=24 / chroma_me=1 / trellis=2 / 8x8dct=1 / cqm=0 / deadzone=21,11 / fast_pskip=1 / chroma_qp_offset=-2 / threads=12 / lookahead_threads=2 / sliced_threads=0 / nr=0 / decimate=1 / interlaced=0 / bluray_compat=0 / constrained_intra=0 / bframes=8 / b_pyramid=2 / b_adapt=2 / b_bias=0 / direct=3 / weightb=1 / open_gop=0 / weightp=2 / keyint=240 / keyint_min=24 / scenecut=40 / intra_refresh=0 / rc_lookahead=60 / rc=crf / mbtree=1 / crf=20.0 / qcomp=0.60 / qpmin=0 / qpmax=69 / qpstep=4 / vbv_maxrate=62500 / vbv_bufsize=78125 / crf_max=0.0 / nal_hrd=none / filler=0 / ip_ratio=1.40 / aq=1:1.00
    Language                    : English
    Default                     : Yes
    Forced                      : No
    Color range                 : Limited
    Color primaries             : BT.709
    Transfer characteristics    : BT.709
    Matrix coefficients         : BT.709
    Statistics Tags Issue       : mkvmerge v10.0.0 ('To Drown In You') 64bit 2017-10-19 06:45:19 / mkvmerge v10.0.0 ('To Drown In You') 64bit 2017-10-19 06:45:19 / UTC 2017-10-18T18:14:27Z
    FromStats_BitRate           : 11486811
    FromStats_Duration          : 01:56:00.954000000
    FromStats_FrameCount        : 166896
    FromStats_StreamSize        : 9994895422
    Duration_Source             : General_Duration

    Audio #1
    ID                          : 2
    Format                      : DTS
    Format/Info                 : Digital Theater Systems
    Codec ID                    : A_DTS
    Duration                    : 1 h 56 min
    Bit rate mode               : Constant
    Bit rate                    : 768 kb/s
    Channel(s)                  : 6 channels
    Channel layout              : C L R Ls Rs LFE
    Sampling rate               : 48.0 kHz
    Frame rate                  : 93.750 FPS (512 SPF)
    Bit depth                   : 24 bits
    Compression mode            : Lossy
    Stream size                 : 638 MiB (6%)
    Title                       : Latino-DTS
    Language                    : Spanish
    Default                     : Yes
    Forced                      : No
    Statistics Tags Issue       : mkvmerge v10.0.0 ('To Drown In You') 64bit 2017-10-19 06:45:19 / mkvmerge v10.0.0 ('To Drown In You') 64bit 2017-10-19 06:45:19 / UTC 2017-10-18T18:14:27Z
    FromStats_BitRate           : 767999
    FromStats_Duration          : 01:56:05.963000000
    FromStats_FrameCount        : 653059
    FromStats_StreamSize        : 668732416
    Duration_Source             : General_Duration

    Audio #2
    ID                          : 3
    Format                      : DTS
    Format/Info                 : Digital Theater Systems
    Codec ID                    : A_DTS
    Duration                    : 1 h 56 min
    Bit rate mode               : Constant
    Bit rate                    : 1 509 kb/s
    Channel(s)                  : 6 channels
    Channel layout              : C L R Ls Rs LFE
    Sampling rate               : 48.0 kHz
    Frame rate                  : 93.750 FPS (512 SPF)
    Bit depth                   : 24 bits
    Compression mode            : Lossy
    Stream size                 : 1.22 GiB (11%)
    Title                       : Ingles-DTS
    Language                    : English
    Default                     : No
    Forced                      : No
    Statistics Tags Issue       : mkvmerge v10.0.0 ('To Drown In You') 64bit 2017-10-19 06:45:19 / mkvmerge v10.0.0 ('To Drown In You') 64bit 2017-10-19 06:45:19 / UTC 2017-10-18T18:14:27Z
    FromStats_BitRate           : 1508999
    FromStats_Duration          : 01:56:01.003000000
    FromStats_FrameCount        : 652594
    FromStats_StreamSize        : 1313019128
    Duration_Source             : General_Duration

    Text #1
    ID                          : 4
    Format                      : UTF-8
    Codec ID                    : S_TEXT/UTF8
    Codec ID/Info               : UTF-8 Plain Text
    Title                       : Forzados
    Language                    : Spanish
    Default                     : Yes
    Forced                      : No
    Statistics Tags Issue       : mkvmerge v10.0.0 ('To Drown In You') 64bit 2017-10-19 06:45:19 / mkvmerge v10.0.0 ('To Drown In You') 64bit 2017-10-19 06:45:19 / UTC 2017-10-18T18:14:27Z
    FromStats_BitRate           : 0
    FromStats_Duration          : 01:47:26.481000000
    FromStats_FrameCount        : 17
    FromStats_StreamSize        : 371

    Text #2
    ID                          : 5
    Format                      : UTF-8
    Codec ID                    : S_TEXT/UTF8
    Codec ID/Info               : UTF-8 Plain Text
    Title                       : Español
    Language                    : Spanish
    Default                     : No
    Forced                      : No
    Statistics Tags Issue       : mkvmerge v10.0.0 ('To Drown In You') 64bit 2017-10-19 06:45:19 / mkvmerge v10.0.0 ('To Drown In You') 64bit 2017-10-19 06:45:19 / UTC 2017-10-18T18:14:27Z
    FromStats_BitRate           : 58
    FromStats_Duration          : 01:50:19.983000000
    FromStats_FrameCount        : 1339
    FromStats_StreamSize        : 48072

  • Peso: 11.2 GiB

Sinopsis

Marty McFly es un adolescente amigo de Doc, un científico a los que todos menos él toman por chiflado. Cuando Doc crea una máquina para viajar en el tiempo en forma de un automóvil deportivo, Marty viaja accidentalmente al año 1955. Allí se encontrará con sus padres cuando eran jóvenes, pero impide su primer encuentro. A partir de entonces, y con el tiempo en su contra, McFly deberá conseguir que se enamoren para que se casen y él no deje de existir.

Ficha técnica

Video trailer de la película

Enlaces de descarga

Rip de Bluray

Descargar Back to the Future (1985) [REMASTERED] Full 1080p Latino – CMHDD




Aportes de DPeliculasHDmega la pass es:dpeliculashdmega.org Aportes de CinemaniaHD la pass es:cinemaniahdd.com

Películas relacionadas

  • DC Liga De Supermascotas (2022) HD 1080p Latino

    DC Liga De Supermascotas (2022) HD 1080p Latino

    2022
    DC Liga De Supermascotas (2022) HD 1080p Latino

    1h 45m 2022

    Descargar DC Liga De Supermascotas (2022) HD 1080p Latino. Krypto el Superperro y Superman son amigos...

    Director: Sam Levine

    Género: Acción

    Actores: Yvette Nicole Brown

  • Rick and Morty (2022) Temporada 6 WEB-DL 1080p Latino

    Rick and Morty (2022) Temporada 6 WEB-DL 1080p Latino

    2013
    Rick and Morty (2022) Temporada 6 WEB-DL 1080p Latino

    0h 22m 2013

    Comedia animada que narra las aventuras de un científico loco Rick Sánchez, que regresa después de...

    Director: Justin Roiland

    Género: Action & Adventure

    Actores: Spencer Grammer

  • Tremors (1990) REMUX 4K HDR Latino – CMHDD

    Tremors (1990) REMUX 4K HDR Latino – CMHDD

    1990
    Tremors (1990) REMUX 4K HDR Latino – CMHDD

    1h 35m 1990

    En Perfección, un pequeño pueblo al borde del desierto de Nevada, algo parece suceder debajo de la...

    Director: Susan Bierbaum

    Género: Acción

    Actores: Victor Wong

descargar Back to the Future (1985) [REMASTERED] Full 1080p Latino – CMHDD Full 1080p 1080p gratis, Back to the Future (1985) [REMASTERED] Full 1080p Latino – CMHDD Full 1080p mega 1 link, Back to the Future (1985) [REMASTERED] Full 1080p Latino – CMHDD Full 1080p pelicula completa, descargar Back to the Future (1985) [REMASTERED] Full 1080p Latino – CMHDD Full 1080p gratis en mega.

Back to the Future (1985) [REMASTERED] Full 1080p Latino – CMHDD pelicula full hd, Back to the Future (1985) [REMASTERED] Full 1080p Latino – CMHDD mega latino, Back to the Future (1985) [REMASTERED] Full 1080p Latino – CMHDD 4k latino, Back to the Future (1985) [REMASTERED] Full 1080p Latino – CMHDD pelicula completa, Back to the Future (1985) [REMASTERED] Full 1080p Latino – CMHDD descargar gratis, descargar Back to the Future (1985) [REMASTERED] Full 1080p Latino – CMHDD pelicula latino, Back to the Future (1985) [REMASTERED] Full 1080p Latino – CMHDD 1 link mega, Back to the Future (1985) [REMASTERED] Full 1080p Latino – CMHDD 1 link google drive, Back to the Future (1985) [REMASTERED] Full 1080p Latino – CMHDD hd 1080p latino.
Comentarios 0