×

¿Problemas para descargar con Mozilla, EDGE? Deshabilita la opción "Abrir vinculos en una pestaña nueva" tal como lo muestra ésta imagen.

Back of the Net (2019) WEB-DL 1080p Latino

619 vistas

Información de Back of the Net (2019) WEB-DL 1080p Latino

back of the net 56821 poster

Datos de la película

  • Calidad: WEBDL
  • Audio: Español Latino AC3 2.0 Capturado - Ingles AC3 5.1 WEBDL
  • Subtitulos: Ingles SRT
  • Resolución: 1920x1080
  • Formato: MKV
  • Codec: H.264
  • Encoder: cinemaniahdd
  • Mediainfo: Clic para Mostrar Datos Ver
  • Back of the Net (2019) WEB-DL 1080p Latino.mkv
    Format                      : Matroska
    Format version              : Version 4
    File size                   : 3.47 GiB
    Duration                    : 1 h 26 min
    Overall bit rate            : 5 764 kb/s
    Movie name                  : Back of the Net (2019) WEB-DL 1080p Latino
    Encoded date                : UTC 2019-09-11 15:02:44
    Writing application         : mkvmerge v35.0.0 ('All The Love In The World') 64-bit
    Writing library             : libebml v1.3.9 + libmatroska v1.5.2

    Video
    ID                          : 1
    Format                      : AVC
    Format/Info                 : Advanced Video Codec
    Format profile              : High@L4
    Format settings             : CABAC / 4 Ref Frames
    Format settings, CABAC      : Yes
    Format settings, ReFrames   : 4 frames
    Format settings, GOP        : N=1
    Codec ID                    : V_MPEG4/ISO/AVC
    Duration                    : 1 h 26 min
    Bit rate                    : 5 121 kb/s
    Width                       : 1 920 pixels
    Height                      : 1 080 pixels
    Display aspect ratio        : 16:9
    Frame rate mode             : Constant
    Frame rate                  : 23.976 (24000/1001) FPS
    Color space                 : YUV
    Chroma subsampling          : 4:2:0
    Bit depth                   : 8 bits
    Scan type                   : Progressive
    Bits/(Pixel*Frame)          : 0.103
    Stream size                 : 3.08 GiB (89%)
    Title                       : CinemaniaHDD
    Language                    : English
    Default                     : Yes
    Forced                      : No
    Color range                 : Limited
    Color primaries             : BT.709
    Transfer characteristics    : BT.709
    Matrix coefficients         : BT.709

    Audio #1
    ID                          : 2
    Format                      : AC-3
    Format/Info                 : Audio Coding 3
    Commercial name             : Dolby Digital
    Codec ID                    : A_AC3
    Duration                    : 1 h 26 min
    Bit rate mode               : Constant
    Bit rate                    : 256 kb/s
    Channel(s)                  : 2 channels
    Channel layout              : L R
    Sampling rate               : 48.0 kHz
    Frame rate                  : 31.250 FPS (1536 SPF)
    Bit depth                   : 16 bits
    Compression mode            : Lossy
    Delay relative to video     : -42 ms
    Stream size                 : 158 MiB (4%)
    Title                       : Español latino [CinemaniaHDD]
    Language                    : Spanish
    Service kind                : Complete Main
    Default                     : Yes
    Forced                      : No

    Audio #2
    ID                          : 3
    Format                      : AC-3
    Format/Info                 : Audio Coding 3
    Commercial name             : Dolby Digital
    Codec ID                    : A_AC3
    Duration                    : 1 h 26 min
    Bit rate mode               : Constant
    Bit rate                    : 384 kb/s
    Channel(s)                  : 6 channels
    Channel layout              : L R C LFE Ls Rs
    Sampling rate               : 48.0 kHz
    Frame rate                  : 31.250 FPS (1536 SPF)
    Bit depth                   : 16 bits
    Compression mode            : Lossy
    Delay relative to video     : -42 ms
    Stream size                 : 237 MiB (7%)
    Title                       : Inglés [CinemaniaHDD]
    Language                    : English
    Service kind                : Complete Main
    Default                     : No
    Forced                      : No

    Text
    ID                          : 4
    Format                      : UTF-8
    Codec ID                    : S_TEXT/UTF8
    Codec ID/Info               : UTF-8 Plain Text
    Duration                    : 1 h 23 min
    Bit rate                    : 102 b/s
    Count of elements           : 1730
    Stream size                 : 62.9 KiB (0%)
    Title                       : Inglés [CinemaniaHDD]
    Language                    : English
    Default                     : No
    Forced                      : No

    Menu
    00:00:00.000                : en:Chapter 1
    00:09:55.595                : en:Chapter 2
    00:20:41.240                : en:Chapter 3
    00:30:45.844                : en:Chapter 4
    00:41:36.494                : en:Chapter 5
    00:50:34.030                : en:Chapter 6
    01:00:43.638                : en:Chapter 7
    01:10:20.214                : en:Chapter 8
    01:18:46.720                : en:Chapter 9
    01:22:52.966                : en:Chapter 10

  • Peso: 3.47 GiB

Sinopsis

Una nueva estudiante en una academia de fútbol está decidida a vencer al equipo de su rival en el torneo nacional.

Ficha técnica

  • Titulo original: Back of the Net
  • Fecha de lanzamiento: 11-04-2019 (Australia)
  • Director: Louise Alston
  • Género: Drama, Familia

Video trailer de la película

Enlaces de descarga

Rip de Bluray

Descargar Back of the Net (2019) WEB-DL 1080p Latino




Aportes de DPeliculasHDmega la pass es:dpeliculashdmega.org Aportes de CinemaniaHD la pass es:cinemaniahdd.com
Guardado en : Drama , Familia

Películas relacionadas

descargar Back of the Net (2019) WEB-DL 1080p Latino WEBDL 1080p gratis, Back of the Net (2019) WEB-DL 1080p Latino WEBDL mega 1 link, Back of the Net (2019) WEB-DL 1080p Latino WEBDL pelicula completa, descargar Back of the Net (2019) WEB-DL 1080p Latino WEBDL gratis en mega.

Back of the Net (2019) WEB-DL 1080p Latino pelicula full hd, Back of the Net (2019) WEB-DL 1080p Latino mega latino, Back of the Net (2019) WEB-DL 1080p Latino 4k latino, Back of the Net (2019) WEB-DL 1080p Latino pelicula completa, Back of the Net (2019) WEB-DL 1080p Latino descargar gratis, descargar Back of the Net (2019) WEB-DL 1080p Latino pelicula latino, Back of the Net (2019) WEB-DL 1080p Latino 1 link mega, Back of the Net (2019) WEB-DL 1080p Latino 1 link google drive, Back of the Net (2019) WEB-DL 1080p Latino hd 1080p latino.
Comentarios 0