×

¿Problemas para descargar con Mozilla, EDGE? Deshabilita la opción "Abrir vinculos en una pestaña nueva" tal como lo muestra ésta imagen.

Babylon (2022) REMUX 1080p Latino

498 vistas

Información de Babylon (2022) REMUX 1080p Latino

Datos de la película

  • Calidad: Full 1080p
  • Audio: Se especifica abajo de la Sinopsis
  • Subtitulos: Español Latino PGS - Ingles PGS
  • Resolución: 1920x1080p
  • Formato: MKV
  • Codec: H.264
  • Encoder: Melkor
  • Mediainfo: Clic para Mostrar Datos Ver
  • Babylon (2022) REMUX 1080p Latino.mkv
    Format                      : Matroska
    Format version              : Version 4
    File size                   : 40.4 GiB
    Duration                    : 3 h 8 min
    Overall bit rate mode       : Variable
    Overall bit rate            : 30.6 Mb/s
    Movie name                  : Babylon (2022) CinemaniaHDD.Net
    Encoded date                : UTC 2023-03-16 20:32:03
    Writing application         : mkvmerge v56.1.0 ('My Friend') 64-bit
    Writing library             : libebml v1.4.2 + libmatroska v1.6.4
    Attachments                 : CINEMANIAHD.png
    Site                        : CinemaniaHDD.Net
    Uploader                    : Melkor

    Video
    ID                          : 1
    Format                      : AVC
    Format/Info                 : Advanced Video Codec
    Format profile              : High@L4.1
    Format settings             : CABAC / 4 Ref Frames
    Format settings, CABAC      : Yes
    Format settings, Reference  : 4 frames
    Codec ID                    : V_MPEG4/ISO/AVC
    Duration                    : 3 h 8 min
    Bit rate mode               : Variable
    Bit rate                    : 25.3 Mb/s
    Maximum bit rate            : 35.9 Mb/s
    Width                       : 1 920 pixels
    Height                      : 1 080 pixels
    Display aspect ratio        : 16:9
    Frame rate mode             : Constant
    Frame rate                  : 23.976 (24000/1001) FPS
    Color space                 : YUV
    Chroma subsampling          : 4:2:0
    Bit depth                   : 8 bits
    Scan type                   : Progressive
    Bits/(Pixel*Frame)          : 0.508
    Stream size                 : 33.3 GiB (82%)
    Title                       : REMUX HD1080p [CinemaniaHDD]
    Default                     : Yes
    Forced                      : Yes

    Audio #1
    ID                          : 2
    Format                      : E-AC-3
    Format/Info                 : Enhanced AC-3
    Commercial name             : Dolby Digital Plus
    Codec ID                    : A_EAC3
    Duration                    : 3 h 8 min
    Bit rate mode               : Constant
    Bit rate                    : 640 kb/s
    Channel(s)                  : 6 channels
    Channel layout              : L R C LFE Ls Rs
    Sampling rate               : 48.0 kHz
    Frame rate                  : 31.250 FPS (1536 SPF)
    Compression mode            : Lossy
    Stream size                 : 865 MiB (2%)
    Title                       : Español Latino DDP [CinemaniaHDD]
    Language                    : Spanish
    Service kind                : Complete Main
    Default                     : No
    Forced                      : No

    Audio #2
    ID                          : 3
    Format                      : MLP FBA 16-ch
    Format/Info                 : Meridian Lossless Packing FBA with 16-channel presentation
    Commercial name             : Dolby TrueHD with Dolby Atmos
    Codec ID                    : A_TRUEHD
    Duration                    : 3 h 8 min
    Bit rate mode               : Variable
    Bit rate                    : 3 525 kb/s
    Maximum bit rate            : 6 429 kb/s
    Channel(s)                  : 8 channels
    Channel layout              : L R C LFE Ls Rs Lb Rb
    Sampling rate               : 48.0 kHz
    Frame rate                  : 1 200.000 FPS (40 SPF)
    Compression mode            : Lossless
    Stream size                 : 4.65 GiB (12%)
    Title                       : Ingles THD[CinemaniaHDD]
    Language                    : English
    Default                     : No
    Forced                      : No
    Number of dynamic objects   : 11
    Bed channel count           : 1 channel
    Bed channel configuration   : LFE

    Audio #3
    ID                          : 4
    Format                      : AC-3
    Format/Info                 : Audio Coding 3
    Commercial name             : Dolby Digital
    Codec ID                    : A_AC3
    Duration                    : 3 h 8 min
    Bit rate mode               : Constant
    Bit rate                    : 448 kb/s
    Channel(s)                  : 6 channels
    Channel layout              : L R C LFE Ls Rs
    Sampling rate               : 48.0 kHz
    Frame rate                  : 31.250 FPS (1536 SPF)
    Compression mode            : Lossy
    Stream size                 : 605 MiB (1%)
    Title                       : Español Latino AC3 [CinemaniaHDD]
    Language                    : Spanish
    Service kind                : Complete Main
    Default                     : Yes
    Forced                      : Yes

    Audio #4
    ID                          : 5
    Format                      : AC-3
    Format/Info                 : Audio Coding 3
    Commercial name             : Dolby Digital
    Format settings             : Dolby Surround EX
    Codec ID                    : A_AC3
    Duration                    : 3 h 8 min
    Bit rate mode               : Constant
    Bit rate                    : 640 kb/s
    Channel(s)                  : 6 channels
    Channel layout              : L R C LFE Ls Rs
    Sampling rate               : 48.0 kHz
    Frame rate                  : 31.250 FPS (1536 SPF)
    Compression mode            : Lossy
    Stream size                 : 865 MiB (2%)
    Title                       : Ingles AC3 [CinemaniaHDD]
    Language                    : English
    Service kind                : Complete Main
    Default                     : No
    Forced                      : No

    Text #1
    ID                          : 6
    Format                      : PGS
    Muxing mode                 : zlib
    Codec ID                    : S_HDMV/PGS
    Codec ID/Info               : Picture based subtitle format used on BDs/HD-DVDs
    Duration                    : 3 h 8 min
    Bit rate                    : 912 b/s
    Count of elements           : 130
    Stream size                 : 1.23 MiB (0%)
    Title                       : Forzados-PGS [CinemaniaHDD]
    Language                    : Spanish
    Default                     : No
    Forced                      : No

    Text #2
    ID                          : 7
    Format                      : PGS
    Muxing mode                 : zlib
    Codec ID                    : S_HDMV/PGS
    Codec ID/Info               : Picture based subtitle format used on BDs/HD-DVDs
    Duration                    : 3 h 8 min
    Bit rate                    : 33.1 kb/s
    Count of elements           : 4259
    Stream size                 : 44.6 MiB (0%)
    Title                       : Español-PGS [CinemaniaHDD]
    Language                    : Spanish
    Default                     : No
    Forced                      : No

    Text #3
    ID                          : 8
    Format                      : PGS
    Muxing mode                 : zlib
    Codec ID                    : S_HDMV/PGS
    Codec ID/Info               : Picture based subtitle format used on BDs/HD-DVDs
    Duration                    : 2 h 57 min
    Bit rate                    : 46.2 kb/s
    Count of elements           : 5409
    Stream size                 : 58.8 MiB (0%)
    Title                       : Ingles-PGS [CinemaniaHDD]
    Language                    : English
    Default                     : No
    Forced                      : No

    Text #4
    ID                          : 9
    Format                      : UTF-8
    Codec ID                    : S_TEXT/UTF8
    Codec ID/Info               : UTF-8 Plain Text
    Duration                    : 2 h 19 min
    Bit rate                    : 0 b/s
    Count of elements           : 28
    Stream size                 : 1 017 Bytes (0%)
    Title                       : Forzados-SRT [CinemaniaHDD]
    Language                    : Spanish
    Default                     : Yes
    Forced                      : Yes

    Text #5
    ID                          : 10
    Format                      : UTF-8
    Codec ID                    : S_TEXT/UTF8
    Codec ID/Info               : UTF-8 Plain Text
    Duration                    : 2 h 57 min
    Bit rate                    : 57 b/s
    Count of elements           : 2230
    Stream size                 : 74.6 KiB (0%)
    Title                       : Español-SRT [CinemaniaHDD]
    Language                    : Spanish
    Default                     : No
    Forced                      : No

    Menu
    00:00:00.000                : Chapter 01
    00:08:34.180                : Chapter 02
    00:14:10.308                : Chapter 03
    00:24:45.484                : Chapter 04
    00:31:53.203                : Chapter 05
    00:40:24.005                : Chapter 06
    00:54:45.532                : Chapter 07
    01:00:54.234                : Chapter 08
    01:11:47.303                : Chapter 09
    01:23:13.488                : Chapter 10
    01:37:01.149                : Chapter 11
    01:48:29.253                : Chapter 12
    01:58:42.782                : Chapter 13
    02:07:16.254                : Chapter 14
    02:12:13.342                : Chapter 15
    02:19:44.042                : Chapter 16
    02:33:15.103                : Chapter 17
    02:38:31.502                : Chapter 18
    02:50:09.533                : Chapter 19
    03:00:48.713                : Chapter 20

  • Peso: 40.4 GiB

Sinopsis

Descargar Babylon (2022) REMUX 1080p Latino. Ambientada en Los Angeles durante los años 20, cuenta una historia de ambición y excesos desmesurados que recorre la ascensión y caída de múltiples personajes durante una época de desenfrenada decadencia y depravación en los albores de Hollywood.

Español Latino EAC3 5.1 Web & AC3 5.1 BD – Ingles TrueHD 7.1 & Core AC3 5.1 BD

Ficha técnica

Video trailer de la película

Enlaces de descarga

Rip de Bluray

Descargar Babylon (2022) REMUX 1080p Latino




Aportes de DPeliculasHDmega la pass es:dpeliculashdmega.org Aportes de CinemaniaHD la pass es:cinemaniahdd.com Aportes recientes:cinemaniahdd.net
Guardado en : Comedia , Drama , Remux

Películas relacionadas

  • The Chosen (2024) Temorada 4 WEB-DL 1080p Latino

    The Chosen (2024) Temorada 4 WEB-DL 1080p Latino

    2019
    The Chosen (2024) Temorada 4 WEB-DL 1080p Latino

    0h 43m 2019

    Por primera vez, la historia más grande jamás contada se presenta en una serie de varias temporadas....

    Director: Dallas Jenkins

    Género: Drama

    Actores: Yasmine Al-Bustami

  • Tiburón (1975) REMUX 1080p Latino-CMHDD

    Tiburón (1975) REMUX 1080p Latino-CMHDD

    1975
    Tiburón (1975) REMUX 1080p Latino-CMHDD

    2h 4m 1975

    Descargar Tiburón (1975) REMUX 1080p Latino-CMHDD. En la costa de un pequeño pueblo del Este de Estados...

    Director: Tom Joyner

    Género: Aventura

    Actores: Ted Grossman

descargar Babylon (2022) REMUX 1080p Latino Full 1080p 1080p gratis, Babylon (2022) REMUX 1080p Latino Full 1080p mega 1 link, Babylon (2022) REMUX 1080p Latino Full 1080p pelicula completa, descargar Babylon (2022) REMUX 1080p Latino Full 1080p gratis en mega.

Babylon (2022) REMUX 1080p Latino pelicula full hd, Babylon (2022) REMUX 1080p Latino mega latino, Babylon (2022) REMUX 1080p Latino 4k latino, Babylon (2022) REMUX 1080p Latino pelicula completa, Babylon (2022) REMUX 1080p Latino descargar gratis, descargar Babylon (2022) REMUX 1080p Latino pelicula latino, Babylon (2022) REMUX 1080p Latino 1 link mega, Babylon (2022) REMUX 1080p Latino 1 link google drive, Babylon (2022) REMUX 1080p Latino hd 1080p latino.
Comentarios 0