×

¿Problemas para descargar con Mozilla, EDGE? Deshabilita la opción "Abrir vinculos en una pestaña nueva" tal como lo muestra ésta imagen.

Babylon (2022) REMUX 4K HDR Latino – CMHDD

493 vistas

Información de Babylon (2022) REMUX 4K HDR Latino – CMHDD

Datos de la película

  • Calidad: 4K HDR
  • Audio: Español Latino AC3 5.1 BLURAY - Ingles AC3 5.1 BLURAY
  • Subtitulos: Español Latino PGS
  • Resolución: 3840x2160p
  • Formato: MKV
  • Codec: H.264
  • Encoder: Dracarys
  • Mediainfo: Clic para Mostrar Datos Ver
  • Format                      : Matroska
    Format version              : Version 4
    File size                   : 75.2 GiB
    Duration                    : 3 h 8 min
    Overall bit rate mode       : Variable
    Overall bit rate            : 57.0 Mb/s
    Movie name                  : Babylon (2022) REMUX 4K HDR Latino - CMHDD
    Encoded date                : UTC 2023-03-17 20:21:37
    Writing application         : mkvmerge v47.0.0 ('Black Flag') 64-bit
    Writing library             : libebml v1.3.10 + libmatroska v1.5.2
    Cover                       : Yes
    Attachments                 : cover.jpg

    Video
    ID                          : 1
    ID in the original source m : 4113 (0x1011)
    Format                      : HEVC
    Format/Info                 : High Efficiency Video Coding
    Format profile              : Main 10@L5.1@High
    HDR format                  : SMPTE ST 2086, HDR10 compatible
    Codec ID                    : V_MPEGH/ISO/HEVC
    Duration                    : 3 h 8 min
    Bit rate                    : 52.3 Mb/s
    Width                       : 3 840 pixels
    Height                      : 2 160 pixels
    Display aspect ratio        : 16:9
    Frame rate mode             : Constant
    Frame rate                  : 23.976 (24000/1001) FPS
    Color space                 : YUV
    Chroma subsampling          : 4:2:0 (Type 2)
    Bit depth                   : 10 bits
    Bits/(Pixel*Frame)          : 0.263
    Stream size                 : 69.0 GiB (92%)
    Default                     : Yes
    Forced                      : No
    Color range                 : Limited
    Color primaries             : BT.2020
    Transfer characteristics    : PQ
    Matrix coefficients         : BT.2020 non-constant
    Mastering display color pri : Display P3
    Mastering display luminance : min: 0.0001 cd/m2, max: 1000 cd/m2
    Maximum Content Light Level : 2755 cd/m2
    Maximum Frame-Average Light : 400 cd/m2
    Original source medium      : Blu-ray

    Audio #1
    ID                          : 2
    ID in the original source m : 4352 (0x1100)
    Format                      : MLP FBA 16-ch
    Format/Info                 : Meridian Lossless Packing FBA with 16-channel presentation
    Commercial name             : Dolby TrueHD with Dolby Atmos
    Codec ID                    : A_TRUEHD
    Duration                    : 3 h 8 min
    Bit rate mode               : Variable
    Bit rate                    : 3 526 kb/s
    Maximum bit rate            : 6 429 kb/s
    Channel(s)                  : 8 channels
    Channel layout              : L R C LFE Ls Rs Lb Rb
    Sampling rate               : 48.0 kHz
    Frame rate                  : 1 200.000 FPS (40 SPF)
    Compression mode            : Lossless
    Stream size                 : 4.65 GiB (6%)
    Language                    : English
    Default                     : No
    Forced                      : No
    Original source medium      : Blu-ray
    Number of dynamic objects   : 11
    Bed channel count           : 1 channel
    Bed channel configuration   : LFE

    Audio #2
    ID                          : 3
    ID in the original source m : 4352 (0x1100)
    Format                      : AC-3
    Format/Info                 : Audio Coding 3
    Commercial name             : Dolby Digital
    Format settings             : Dolby Surround EX
    Codec ID                    : A_AC3
    Duration                    : 3 h 8 min
    Bit rate mode               : Constant
    Bit rate                    : 640 kb/s
    Channel(s)                  : 6 channels
    Channel layout              : L R C LFE Ls Rs
    Sampling rate               : 48.0 kHz
    Frame rate                  : 31.250 FPS (1536 SPF)
    Compression mode            : Lossy
    Stream size                 : 865 MiB (1%)
    Language                    : English
    Service kind                : Complete Main
    Default                     : No
    Forced                      : No
    Original source medium      : Blu-ray

    Audio #3
    ID                          : 4
    ID in the original source m : 4354 (0x1102)
    Format                      : AC-3
    Format/Info                 : Audio Coding 3
    Commercial name             : Dolby Digital
    Codec ID                    : A_AC3
    Duration                    : 3 h 8 min
    Bit rate mode               : Constant
    Bit rate                    : 448 kb/s
    Channel(s)                  : 6 channels
    Channel layout              : L R C LFE Ls Rs
    Sampling rate               : 48.0 kHz
    Frame rate                  : 31.250 FPS (1536 SPF)
    Compression mode            : Lossy
    Delay relative to video     : 14 ms
    Stream size                 : 605 MiB (1%)
    Language                    : Spanish
    Service kind                : Complete Main
    Default                     : Yes
    Forced                      : No
    Original source medium      : Blu-ray

    Text
    ID                          : 5
    ID in the original source m : 4772 (0x12A4)
    Format                      : PGS
    Muxing mode                 : zlib
    Codec ID                    : S_HDMV/PGS
    Codec ID/Info               : Picture based subtitle format used on BDs/HD-DVDs
    Duration                    : 3 h 8 min
    Bit rate                    : 33.1 kb/s
    Frame rate                  : 0.376 FPS
    Count of elements           : 4259
    Stream size                 : 44.6 MiB (0%)
    Language                    : Spanish
    Default                     : No
    Forced                      : No
    Original source medium      : Blu-ray

    Menu
    00:00:00.000                : en:Capítulo 01
    00:08:33.179                : en:Capítulo 02
    00:14:09.306                : en:Capítulo 03
    00:24:44.483                : en:Capítulo 04
    00:31:52.201                : en:Capítulo 05
    00:40:23.003                : en:Capítulo 06
    00:54:44.531                : en:Capítulo 07
    01:00:53.232                : en:Capítulo 08
    01:11:46.302                : en:Capítulo 09
    01:23:12.487                : en:Capítulo 10
    01:37:00.147                : en:Capítulo 11
    01:48:28.251                : en:Capítulo 12
    01:58:41.781                : en:Capítulo 13
    02:07:15.252                : en:Capítulo 14
    02:12:12.341                : en:Capítulo 15
    02:19:43.041                : en:Capítulo 16
    02:33:14.101                : en:Capítulo 17
    02:38:30.501                : en:Capítulo 18
    02:50:08.531                : en:Capítulo 19
    03:00:47.711                : en:Capítulo 20

  • Peso: 75.2 GiB

Sinopsis

Ambientada en Los Angeles durante los años 20, cuenta una historia de ambición y excesos desmesurados que recorre la ascensión y caída de múltiples personajes durante una época de desenfrenada decadencia y depravación en los albores de Hollywood.

Ficha técnica

Video trailer de la película

Enlaces de descarga

Rip de Bluray

Descargar Babylon (2022) REMUX 4K HDR Latino – CMHDD


Aportes de DPeliculasHDmega la pass es:dpeliculashdmega.org Aportes de CinemaniaHD la pass es:cinemaniahdd.com Aportes recientes:cinemaniahdd.net
Guardado en : Comedia , Drama

Películas relacionadas

descargar Babylon (2022) REMUX 4K HDR Latino – CMHDD 4K HDR 1080p gratis, Babylon (2022) REMUX 4K HDR Latino – CMHDD 4K HDR mega 1 link, Babylon (2022) REMUX 4K HDR Latino – CMHDD 4K HDR pelicula completa, descargar Babylon (2022) REMUX 4K HDR Latino – CMHDD 4K HDR gratis en mega.

Babylon (2022) REMUX 4K HDR Latino – CMHDD pelicula full hd, Babylon (2022) REMUX 4K HDR Latino – CMHDD mega latino, Babylon (2022) REMUX 4K HDR Latino – CMHDD 4k latino, Babylon (2022) REMUX 4K HDR Latino – CMHDD pelicula completa, Babylon (2022) REMUX 4K HDR Latino – CMHDD descargar gratis, descargar Babylon (2022) REMUX 4K HDR Latino – CMHDD pelicula latino, Babylon (2022) REMUX 4K HDR Latino – CMHDD 1 link mega, Babylon (2022) REMUX 4K HDR Latino – CMHDD 1 link google drive, Babylon (2022) REMUX 4K HDR Latino – CMHDD hd 1080p latino.
Comentarios 0