×

¿Problemas para descargar con Mozilla, EDGE? Deshabilita la opción "Abrir vinculos en una pestaña nueva" tal como lo muestra ésta imagen.

Baby: El aprendiz del crimen (2017) Full HD 1080p Latino

5.181 vistas

Información de Baby: El aprendiz del crimen (2017) Full HD 1080p Latino

Datos de la película

  • Calidad: Full 1080p
  • Audio: Español Latino AC3 5.1 BLURAY - Ingles DTS 5.1 BLURAY
  • Subtitulos: Español Latino PGS - Ingles PGS
  • Resolución: 1920x1080p
  • Formato: MKV
  • Codec: H.264
  • Encoder: Dracarys
  • Mediainfo: Clic para Mostrar Datos Ver
  • Baby Driver (2017) Full HD 1080p Latino-CMHDD.mkv
    Format                      : Matroska
    Format version              : Version 4
    File size                   : 6.59 GiB
    Duration                    : 1 h 52 min
    Overall bit rate            : 8 376 kb/s
    Movie name                  : Baby Driver (2017) CinemaniaHDD.Net
    Encoded date                : UTC 2023-03-21 16:58:29
    Writing application         : mkvmerge v56.1.0 ('My Friend') 64-bit
    Writing library             : libebml v1.4.2 + libmatroska v1.6.4
    Attachments                 : CINEMANIAHD.png

    Video
    ID                          : 1
    Format                      : AVC
    Format/Info                 : Advanced Video Codec
    Format profile              : High@L4.1
    Format settings             : CABAC / 4 Ref Frames
    Format settings, CABAC      : Yes
    Format settings, Reference  : 4 frames
    Codec ID                    : V_MPEG4/ISO/AVC
    Duration                    : 1 h 52 min
    Bit rate                    : 6 179 kb/s
    Width                       : 1 920 pixels
    Height                      : 1 080 pixels
    Display aspect ratio        : 16:9
    Frame rate mode             : Constant
    Frame rate                  : 23.976 (24000/1001) FPS
    Color space                 : YUV
    Chroma subsampling          : 4:2:0
    Bit depth                   : 8 bits
    Scan type                   : Progressive
    Bits/(Pixel*Frame)          : 0.124
    Stream size                 : 4.86 GiB (74%)
    Title                       : Full HD1080p [CinemaniaHDD]
    Writing library             : x264 core 148 r2708 86b7198
    Encoding settings           : cabac=1 / ref=4 / deblock=1:0:0 / analyse=0x3:0x133 / me=esa / subme=10 / psy=1 / psy_rd=1.00:0.00 / mixed_ref=1 / me_range=24 / chroma_me=1 / trellis=2 / 8x8dct=1 / cqm=0 / deadzone=21,11 / fast_pskip=1 / chroma_qp_offset=-2 / threads=34 / lookahead_threads=5 / sliced_threads=0 / nr=0 / decimate=1 / interlaced=0 / bluray_compat=0 / constrained_intra=0 / bframes=8 / b_pyramid=2 / b_adapt=2 / b_bias=0 / direct=3 / weightb=1 / open_gop=0 / weightp=2 / keyint=240 / keyint_min=24 / scenecut=40 / intra_refresh=0 / rc_lookahead=60 / rc=crf / mbtree=1 / crf=20.0 / qcomp=0.60 / qpmin=0 / qpmax=69 / qpstep=4 / vbv_maxrate=62500 / vbv_bufsize=78125 / crf_max=0.0 / nal_hrd=none / filler=0 / ip_ratio=1.40 / aq=1:1.00
    Default                     : Yes
    Forced                      : Yes
    Color range                 : Limited
    Color primaries             : BT.709
    Transfer characteristics    : BT.709
    Matrix coefficients         : BT.709

    Audio #1
    ID                          : 2
    Format                      : AC-3
    Format/Info                 : Audio Coding 3
    Commercial name             : Dolby Digital
    Codec ID                    : A_AC3
    Duration                    : 1 h 52 min
    Bit rate mode               : Constant
    Bit rate                    : 640 kb/s
    Channel(s)                  : 6 channels
    Channel layout              : L R C LFE Ls Rs
    Sampling rate               : 48.0 kHz
    Frame rate                  : 31.250 FPS (1536 SPF)
    Compression mode            : Lossy
    Stream size                 : 516 MiB (8%)
    Title                       : Español Latino [CinemaniaHDD]
    Language                    : Spanish
    Service kind                : Complete Main
    Default                     : Yes
    Forced                      : Yes

    Audio #2
    ID                          : 3
    Format                      : DTS
    Format/Info                 : Digital Theater Systems
    Codec ID                    : A_DTS
    Duration                    : 1 h 52 min
    Bit rate mode               : Constant
    Bit rate                    : 1 509 kb/s
    Channel(s)                  : 6 channels
    Channel layout              : C L R Ls Rs LFE
    Sampling rate               : 48.0 kHz
    Frame rate                  : 93.750 FPS (512 SPF)
    Bit depth                   : 16 bits
    Compression mode            : Lossy
    Stream size                 : 1.19 GiB (18%)
    Title                       : Ingles [CinemaniaHDD]
    Language                    : English
    Default                     : No
    Forced                      : No

    Text #1
    ID                          : 4
    Format                      : PGS
    Muxing mode                 : zlib
    Codec ID                    : S_HDMV/PGS
    Codec ID/Info               : Picture based subtitle format used on BDs/HD-DVDs
    Duration                    : 1 h 46 min
    Bit rate                    : 1 034 b/s
    Count of elements           : 102
    Stream size                 : 804 KiB (0%)
    Title                       : Forzados-PGS [CinemaniaHDD]
    Language                    : Spanish
    Default                     : No
    Forced                      : No

    Text #2
    ID                          : 5
    Format                      : PGS
    Muxing mode                 : zlib
    Codec ID                    : S_HDMV/PGS
    Codec ID/Info               : Picture based subtitle format used on BDs/HD-DVDs
    Duration                    : 1 h 51 min
    Bit rate                    : 37.8 kb/s
    Count of elements           : 2656
    Stream size                 : 30.3 MiB (0%)
    Title                       : Español-PGS [CinemaniaHDD]
    Language                    : Spanish
    Default                     : No
    Forced                      : No

    Text #3
    ID                          : 6
    ID in the original source m : 4608 (0x1200)
    Format                      : PGS
    Muxing mode                 : zlib
    Codec ID                    : S_HDMV/PGS
    Codec ID/Info               : Picture based subtitle format used on BDs/HD-DVDs
    Duration                    : 1 h 49 min
    Bit rate                    : 44.1 kb/s
    Count of elements           : 3110
    Stream size                 : 34.7 MiB (1%)
    Title                       : Ingles [CinemaniaHDD]
    Language                    : English
    Default                     : No
    Forced                      : No
    Original source medium      : Blu-ray

    Text #4
    ID                          : 7
    Format                      : UTF-8
    Codec ID                    : S_TEXT/UTF8
    Codec ID/Info               : UTF-8 Plain Text
    Duration                    : 1 h 46 min
    Bit rate                    : 1 b/s
    Count of elements           : 51
    Stream size                 : 1.03 KiB (0%)
    Title                       : Forzados-SRT [CinemaniaHDD]
    Language                    : Spanish
    Default                     : Yes
    Forced                      : Yes

    Text #5
    ID                          : 8
    Format                      : UTF-8
    Codec ID                    : S_TEXT/UTF8
    Codec ID/Info               : UTF-8 Plain Text
    Duration                    : 1 h 51 min
    Bit rate                    : 51 b/s
    Count of elements           : 1330
    Stream size                 : 42.2 KiB (0%)
    Title                       : Español-SRT [CinemaniaHDD]
    Language                    : Spanish
    Default                     : No
    Forced                      : No

    Menu
    00:00:00.000                : Chapter 01
    00:09:11.050                : Chapter 02
    00:13:30.476                : Chapter 03
    00:20:58.173                : Chapter 04
    00:25:17.599                : Chapter 05
    00:33:07.902                : Chapter 06
    00:43:43.245                : Chapter 07
    00:48:15.642                : Chapter 08
    00:53:39.549                : Chapter 09
    00:58:51.903                : Chapter 10
    01:05:23.544                : Chapter 11
    01:11:34.081                : Chapter 12
    01:19:17.002                : Chapter 13
    01:30:30.675                : Chapter 14
    01:38:04.169                : Chapter 15
    01:43:30.412                : Chapter 16

  • Peso: 6,59 GB

Sinopsis

Descargar Baby: El aprendiz del crimen (2017) Full HD 1080p Latino. Baby, un joven y talentoso conductor especializado en fugas (Ansel Elgort), depende del ritmo de su banda sonora personal para ser el mejor en lo suyo. Cuando conoce a la chica de sus sueños (Lily James), Baby ve una oportunidad de abandonar su vida criminal y realizar una huida limpia. Pero después de haber sido forzado a trabajar para un jefe del crimen (Kevin Spacey), deberá dar la cara cuando un malogrado golpe amenaza su vida, su amor y su libertad.

RESUBIDO!!!

Ficha técnica

Video trailer de la película

Enlaces de descarga

Rip de Bluray

Descargar Baby: El aprendiz del crimen (2017) Full HD 1080p Latino




Aportes de DPeliculasHDmega la pass es:dpeliculashdmega.org Aportes de CinemaniaHD la pass es:cinemaniahdd.com Aportes recientes:cinemaniahdd.net

Películas relacionadas

  • 57 Seconds (2023) AMZN WEB-DL 1080p Latino

    57 Seconds (2023) AMZN WEB-DL 1080p Latino

    2023
    57 Seconds (2023) AMZN WEB-DL 1080p Latino

    1h 39m 2023

    Cuando un blogger de tecnología consigue una entrevista con un gurú de la tecnología y detiene un...

    Director: Taylor DiMarco

    Género: Acción

    Actores: Valerie E. Lamb

  • Hightown (2024) Temporada 3 AMZN WEB-DL 1080p Latino

    Hightown (2024) Temporada 3 AMZN WEB-DL 1080p Latino

    2020
    Hightown (2024) Temporada 3 AMZN WEB-DL 1080p Latino

    0h 55m 2020

    En la tercera temporada de Hightown, Jackie Quinones debe confiar en sus lealtades y creencias para elegir...

    Director: Rebecca Perry Cutter

    Género: Crimen

    Actores: Riley Voelkel

  • The Bodyguard (1992) 1080p Latino-CMHDD

    The Bodyguard (1992) 1080p Latino-CMHDD

    1992
    The Bodyguard (1992) 1080p Latino-CMHDD

    2h 9m 1992

    Descargar The Bodyguard (1992) 1080p Latino-CMHDD. Una cantante famosa que recibe constantes cartas anónimas...

    Director: Mick Jackson

    Género: Acción

    Actores: Whitney Houston

descargar Baby: El aprendiz del crimen (2017) Full HD 1080p Latino Full 1080p 1080p gratis, Baby: El aprendiz del crimen (2017) Full HD 1080p Latino Full 1080p mega 1 link, Baby: El aprendiz del crimen (2017) Full HD 1080p Latino Full 1080p pelicula completa, descargar Baby: El aprendiz del crimen (2017) Full HD 1080p Latino Full 1080p gratis en mega.

Baby: El aprendiz del crimen (2017) Full HD 1080p Latino pelicula full hd, Baby: El aprendiz del crimen (2017) Full HD 1080p Latino mega latino, Baby: El aprendiz del crimen (2017) Full HD 1080p Latino 4k latino, Baby: El aprendiz del crimen (2017) Full HD 1080p Latino pelicula completa, Baby: El aprendiz del crimen (2017) Full HD 1080p Latino descargar gratis, descargar Baby: El aprendiz del crimen (2017) Full HD 1080p Latino pelicula latino, Baby: El aprendiz del crimen (2017) Full HD 1080p Latino 1 link mega, Baby: El aprendiz del crimen (2017) Full HD 1080p Latino 1 link google drive, Baby: El aprendiz del crimen (2017) Full HD 1080p Latino hd 1080p latino.
Comentarios 7