Baby (2018) Temporada 1 NF 1080p WEB-DL Latino

422 vistas
1 estrella2 estrellas3 estrellas4 estrellas5 estrellas (Ninguna valoración todavía)
Cargando…

Información de Baby (2018) Temporada 1 NF 1080p WEB-DL Latino

Datos de la película

  • Calidad: WEBDL
  • Audio: Español Latino AC3 5.1 Netflix - Ingles AC3 5.1 Netflix
  • Subtitulos: Español Latino SRT- FORZADOS SRT
  • Resolución: 1920x1080
  • Formato: MKV
  • Codec: H.264
  • Encoder: cinemaniahdd
  • Mediainfo: Clic para Mostrar Datos Ver
  • \Baby S01E01 NF 1080p WEB-DL Latino.mkv
    Format                      : Matroska
    Format version              : Version 4
    File size                   : 1.67 GiB
    Duration                    : 43 min 32 s
    Overall bit rate mode       : Variable
    Overall bit rate            : 5 489 kb/s
    Movie name                  : Baby S01E01
    Encoded date                : UTC 2019-02-12 02:56:30 / UTC 2019-01-23 19:19:58
    Writing application         : mkvmerge v11.0.0 ('Alive') 64bit
    Writing library             : libebml v1.3.4 + libmatroska v1.4.5 / Lavf58.0.0

    Video
    ID                          : 1
    Format                      : AVC
    Format/Info                 : Advanced Video Codec
    Format profile              : [email protected]
    Format settings             : CABAC / 3 Ref Frames
    Format settings, CABAC      : Yes
    Format settings, ReFrames   : 3 frames
    Codec ID                    : V_MPEG4/ISO/AVC
    Duration                    : 43 min 32 s
    Bit rate mode               : Variable
    Bit rate                    : 4 612 kb/s
    Nominal bit rate            : 4 870 kb/s
    Maximum bit rate            : 7 305 kb/s
    Width                       : 1 920 pixels
    Height                      : 1 080 pixels
    Display aspect ratio        : 16:9
    Frame rate mode             : Constant
    Frame rate                  : 25.000 FPS
    Color space                 : YUV
    Chroma subsampling          : 4:2:0
    Bit depth                   : 8 bits
    Scan type                   : Progressive
    Bits/(Pixel*Frame)          : 0.089
    Stream size                 : 1.40 GiB (84%)
    Title                       : CinemaniaHDD
    Writing library             : x264 core 148 r2715 7e75228
    Encoding settings           : cabac=1 / ref=3 / deblock=1:0:0 / analyse=0x1:0x111 / me=umh / subme=10 / psy=1 / psy_rd=1.00:0.00 / mixed_ref=1 / me_range=24 / chroma_me=1 / trellis=2 / 8x8dct=0 / cqm=0 / deadzone=21,11 / fast_pskip=1 / chroma_qp_offset=-2 / threads=6 / lookahead_threads=1 / sliced_threads=0 / nr=0 / decimate=1 / interlaced=0 / bluray_compat=0 / stitchable=1 / constrained_intra=0 / bframes=2 / b_pyramid=0 / b_adapt=2 / b_bias=0 / direct=3 / weightb=1 / open_gop=0 / weightp=2 / keyint=50 / keyint_min=26 / scenecut=0 / intra_refresh=0 / rc_lookahead=50 / rc=2pass / mbtree=1 / bitrate=4870 / ratetol=1.0 / qcomp=0.50 / qpmin=6 / qpmax=51 / qpstep=4 / cplxblur=20.0 / qblur=0.5 / vbv_maxrate=7305 / vbv_bufsize=9740 / nal_hrd=vbr / filler=0 / ip_ratio=1.40 / aq=1:1.00
    Default                     : Yes
    Forced                      : No
    Statistics Tags Issue       : mkvmerge v11.0.0 ('Alive') 64bit 2019-02-12 02:56:30 / mkvmerge v11.0.0 ('Alive') 64bit 2019-02-12 02:56:30 / UTC 2019-01-23 19:19:58
    FromStats_BitRate           : 4719497
    FromStats_Duration          : 00:43:32.360000000
    FromStats_FrameCount        : 65309
    FromStats_StreamSize        : 1541128367

    Audio #1
    ID                          : 2
    Format                      : AC-3
    Format/Info                 : Audio Coding 3
    Commercial name             : Dolby Digital
    Codec ID                    : A_AC3
    Duration                    : 43 min 32 s
    Bit rate mode               : Constant
    Bit rate                    : 384 kb/s
    Channel(s)                  : 6 channels
    Channel layout              : L R C LFE Ls Rs
    Sampling rate               : 48.0 kHz
    Frame rate                  : 31.250 FPS (1536 SPF)
    Bit depth                   : 16 bits
    Compression mode            : Lossy
    Stream size                 : 120 MiB (7%)
    Title                       : Español latino [CinemaniaHDD]
    Language                    : Spanish
    Service kind                : Complete Main
    Default                     : Yes
    Forced                      : No
    Encoded date                : UTC 2019-01-23 19:20:01
    Statistics Tags Issue       : mkvmerge v11.0.0 ('Alive') 64bit 2019-02-12 02:56:30 / mkvmerge v11.0.0 ('Alive') 64bit 2019-02-12 02:56:30 / UTC 2019-01-23 19:19:58
    FromStats_BitRate           : 384000
    FromStats_Duration          : 00:43:32.768000000
    FromStats_FrameCount        : 81649
    FromStats_StreamSize        : 125412864

    Audio #2
    ID                          : 3
    Format                      : AC-3
    Format/Info                 : Audio Coding 3
    Commercial name             : Dolby Digital
    Codec ID                    : A_AC3
    Duration                    : 43 min 32 s
    Bit rate mode               : Constant
    Bit rate                    : 384 kb/s
    Channel(s)                  : 6 channels
    Channel layout              : L R C LFE Ls Rs
    Sampling rate               : 48.0 kHz
    Frame rate                  : 31.250 FPS (1536 SPF)
    Bit depth                   : 16 bits
    Compression mode            : Lossy
    Stream size                 : 120 MiB (7%)
    Title                       : Inglés [CinemaniaHDD]
    Language                    : English
    Service kind                : Complete Main
    Default                     : No
    Forced                      : No
    Encoded date                : UTC 2019-01-23 19:19:58
    Statistics Tags Issue       : mkvmerge v11.0.0 ('Alive') 64bit 2019-02-12 02:56:30 / mkvmerge v11.0.0 ('Alive') 64bit 2019-02-12 02:56:30 / UTC 2019-01-23 19:19:58
    FromStats_BitRate           : 384000
    FromStats_Duration          : 00:43:32.768000000
    FromStats_FrameCount        : 81649
    FromStats_StreamSize        : 125412864

    Text #1
    ID                          : 4
    Format                      : UTF-8
    Codec ID                    : S_TEXT/UTF8
    Codec ID/Info               : UTF-8 Plain Text
    Title                       : Español latino [CinemaniaHDD]
    Language                    : Spanish
    Default                     : No
    Forced                      : No
    Statistics Tags Issue       : mkvmerge v11.0.0 ('Alive') 64bit 2019-02-12 02:56:30 / mkvmerge v11.0.0 ('Alive') 64bit 2019-02-12 02:56:30 / UTC 2019-01-23 19:19:58
    FromStats_BitRate           : 35
    FromStats_Duration          : 00:43:01.400000000
    FromStats_FrameCount        : 391
    FromStats_StreamSize        : 11487

    Text #2
    ID                          : 5
    Format                      : UTF-8
    Codec ID                    : S_TEXT/UTF8
    Codec ID/Info               : UTF-8 Plain Text
    Title                       : Forzados [CinemaniaHDD]
    Language                    : Spanish
    Default                     : Yes
    Forced                      : Yes
    Statistics Tags Issue       : mkvmerge v11.0.0 ('Alive') 64bit 2019-02-12 02:56:30 / mkvmerge v11.0.0 ('Alive') 64bit 2019-02-12 02:56:30 / UTC 2019-01-23 19:19:58
    FromStats_BitRate           : 1
    FromStats_Duration          : 00:39:51.360000000
    FromStats_FrameCount        : 26
    FromStats_StreamSize        : 562

  • Peso: 1.67 GiB Aprox..

Sinopsis

Esta serie basada en hechos reales narra las vivencias de dos jóvenes de Roma que desafían las convenciones sociales en busca de la independencia y una identidad propia. Hartas de sus familias y de la escuela, dos chicas adolescentes de la zona adinerada de Roma se internan en el submundo de los bajos fondos de la capital italiana.

Ficha técnica

  • Titulo original: Baby
  • Fecha de lanzamiento: 30-11-2018 (IT)
  • Director: Andrea De Sica, Anna Negri
  • Género: Drama
  • Puntuación: 0.0 0 votos
  • Duración:
    0h 45m

Video trailer de la película

Enlaces de descarga

Rip de Bluray

Descargar Baby (2018) Temporada 1 NF 1080p WEB-DL Latino




Aportes de DPeliculasHDmega la pass es:dpeliculashdmega.org Aportes de CinemaniaHD la pass es:cinemaniahdd.com
Guardado en : Drama

Películas relacionadas

  • El Vacio (2018) Temporada 1 NF 1080p Latino

    2018
    El Vacio (2018) Temporada 1 NF 1080p Latino

    0.0 0h 25m 2018

    Tres adolescentes despiertan en un reino extraño lleno de portales mágicos, enigmas desconcertantes...

    Director: Vito Viscomi

    Género: Animación

    Actores: Mark Hildreth

  • Wolf Warrior 2 (2017) 1080p Latino

    2017
    Wolf Warrior 2 (2017) 1080p Latino

    0.0 2h 6m 2017

    Secuela de la película de acción exitosa "Wolf Warrior" (2015) La operación más peligrosa de las...

    Director: Wu Jing

    Género: Acción

    Actores: Yu Qian

  • The Front Runner (2018) Full 1080p Latino

    2018
    The Front Runner (2018) Full 1080p Latino

    0.0 1h 53m 2018

    Narra la campaña presidencial del senador estadounidense Gary Hart, que tuvo lugar en 1988, momento...

    Director: Jason Reitman

    Género: Drama

    Actores: William Walker

  • Papillon (2017) 1080p Latino

    2017
    Papillon (2017) 1080p Latino

    0.0 1h 49m 2017

    Red Granite Pictures producte esta nueva versión del clásico homónimo de 1973 dirigido por Franklin...

    Director: Michael Noer

    Género: Drama

    Actores: Yorick van Wageningen

Comentarios 0