×

¿Problemas para descargar con Mozilla, EDGE? Deshabilita la opción "Abrir vinculos en una pestaña nueva" tal como lo muestra ésta imagen.

Babel (2006) REMUX 1080p SUB

304 vistas

Información de Babel (2006) REMUX 1080p SUB

Datos de la película

  • Calidad: Full 1080p
  • Audio: Se especifica abajo de la Sinopsis
  • Subtitulos: Español Latino PGS - Ingles PGS
  • Resolución: 1920x1080p
  • Formato: MKV
  • Codec: H.264
  • Encoder: CinefiloCool
  • Mediainfo: Clic para Mostrar Datos Ver
  • Babel (2006) REMUX 1080p ORG SUB-CMHDD.mkv
    Format                      : Matroska
    Format version              : Version 4
    File size                   : 38.0 GiB
    Duration                    : 2 h 23 min
    Overall bit rate mode       : Variable
    Overall bit rate            : 37.9 Mb/s
    Movie name                  : Babel (2006) CinemaniaHDD.Net
    Encoded date                : UTC 2022-01-04 08:57:04
    Writing application         : mkvmerge v56.1.0 ('My Friend') 64-bit
    Writing library             : libebml v1.4.2 + libmatroska v1.6.4
    Attachments                 : CINEMANIAHD.png

    Video
    ID                          : 1
    ID in the original source m : 4113 (0x1011)
    Format                      : MPEG Video
    Format version              : Version 2
    Format profile              : Main@High
    Format settings             : BVOP
    Format settings, BVOP       : Yes
    Format settings, Matrix     : Default
    Format settings, GOP        : Variable
    Codec ID                    : V_MPEG2
    Codec ID/Info               : MPEG 1 or 2 Video
    Duration                    : 2 h 23 min
    Bit rate mode               : Variable
    Bit rate                    : 32.7 Mb/s
    Maximum bit rate            : 35.0 Mb/s
    Width                       : 1 920 pixels
    Height                      : 1 080 pixels
    Display aspect ratio        : 16:9
    Frame rate mode             : Constant
    Frame rate                  : 23.976 (24000/1001) FPS
    Color space                 : YUV
    Chroma subsampling          : 4:2:0
    Bit depth                   : 8 bits
    Scan type                   : Progressive
    Compression mode            : Lossy
    Bits/(Pixel*Frame)          : 0.657
    Time code of first frame    : 00:00:00:00
    Time code source            : Group of pictures header
    GOP, Open/Closed            : Open
    GOP, Open/Closed of first f : Closed
    Stream size                 : 32.7 GiB (86%)
    Title                       : REMUX HD1080p [CinemaniaHDD]
    Default                     : Yes
    Forced                      : Yes
    Original source medium      : Blu-ray

    Audio #1
    ID                          : 2
    ID in the original source m : 4352 (0x1100)
    Format                      : PCM
    Format settings             : Little / Signed
    Codec ID                    : A_PCM/INT/LIT
    Duration                    : 2 h 23 min
    Bit rate mode               : Constant
    Bit rate                    : 4 608 kb/s
    Channel(s)                  : 6 channels
    Sampling rate               : 48.0 kHz
    Frame rate                  : 200.000 FPS (240 SPF)
    Bit depth                   : 16 bits
    Delay relative to video     : 1 s 920 ms
    Stream size                 : 4.61 GiB (12%)
    Title                       : Ingles-ORG [CinemaniaHDD]
    Language                    : English
    Default                     : Yes
    Forced                      : Yes
    Original source medium      : Blu-ray

    Audio #2
    ID                          : 3
    ID in the original source m : 4354 (0x1102)
    Format                      : AC-3
    Format/Info                 : Audio Coding 3
    Commercial name             : Dolby Digital
    Codec ID                    : A_AC3
    Duration                    : 2 h 23 min
    Bit rate mode               : Constant
    Bit rate                    : 640 kb/s
    Channel(s)                  : 6 channels
    Channel layout              : L R C LFE Ls Rs
    Sampling rate               : 48.0 kHz
    Frame rate                  : 31.250 FPS (1536 SPF)
    Compression mode            : Lossy
    Stream size                 : 657 MiB (2%)
    Title                       : Ingles AC3-ORG [CinemaniaHDD]
    Language                    : English
    Service kind                : Complete Main
    Default                     : No
    Forced                      : No
    Original source medium      : Blu-ray

    Text #1
    ID                          : 4
    ID in the original source m : 4610 (0x1202)
    Format                      : PGS
    Muxing mode                 : zlib
    Codec ID                    : S_HDMV/PGS
    Codec ID/Info               : Picture based subtitle format used on BDs/HD-DVDs
    Duration                    : 2 h 14 min
    Bit rate                    : 15.2 kb/s
    Count of elements           : 1554
    Stream size                 : 14.6 MiB (0%)
    Title                       : Español-PGS [CinemaniaHDD]
    Language                    : Spanish
    Default                     : No
    Forced                      : No
    Original source medium      : Blu-ray

    Text #2
    ID                          : 5
    ID in the original source m : 4608 (0x1200)
    Format                      : PGS
    Muxing mode                 : zlib
    Codec ID                    : S_HDMV/PGS
    Codec ID/Info               : Picture based subtitle format used on BDs/HD-DVDs
    Duration                    : 2 h 11 min
    Bit rate                    : 20.9 kb/s
    Count of elements           : 1882
    Stream size                 : 19.7 MiB (0%)
    Title                       : Ingles-PGS [CinemaniaHDD]
    Language                    : English
    Default                     : No
    Forced                      : No
    Original source medium      : Blu-ray

    Text #3
    ID                          : 6
    Format                      : UTF-8
    Codec ID                    : S_TEXT/UTF8
    Codec ID/Info               : UTF-8 Plain Text
    Duration                    : 2 h 14 min
    Bit rate                    : 24 b/s
    Count of elements           : 777
    Stream size                 : 23.7 KiB (0%)
    Title                       : Español-SRT [CinemaniaHDD]
    Default                     : Yes
    Forced                      : Yes

    Menu
    00:00:00.000                : Chapter 01
    00:08:50.363                : Chapter 02
    00:14:27.575                : Chapter 03
    00:19:38.885                : Chapter 04
    00:27:53.587                : Chapter 05
    00:30:53.726                : Chapter 06
    00:35:41.764                : Chapter 07
    00:44:28.666                : Chapter 08
    00:50:02.748                : Chapter 09
    00:55:55.101                : Chapter 10
    01:01:18.548                : Chapter 11
    01:05:09.280                : Chapter 12
    01:15:25.479                : Chapter 13
    01:20:19.564                : Chapter 14
    01:30:08.528                : Chapter 15
    01:34:31.872                : Chapter 16
    01:42:57.337                : Chapter 17
    01:45:00.042                : Chapter 18
    01:53:15.497                : Chapter 19
    01:57:26.497                : Chapter 20
    01:59:30.496                : Chapter 21
    02:02:12.033                : Chapter 22
    02:08:46.719                : Chapter 23
    02:16:06.158                : Chapter 24

  • Peso: 38.0 GiB

Sinopsis

Descargar Babel (2006) REMUX 1080p SUB. Un accidente conecta a cuatro grupos de personas en tres continentes distintos: dos jóvenes marroquíes, una pareja estadounidense, una adolescente japonesa sorda y su padre, y a una niñera mexicana que se lleva a los niños a su cargo más allá de la frontera sin el permiso de sus padres.

Audio Multi Languaje PCM 5.1 + AC3 5.1 Bluray
Disponible Solo Para VIP!!!

Nota:
El Idioma original ademas del español, es una combinación entre multiples idiomas por eso opté por dejarlo de esa manera y no inlcuir los doblajes (que de hecho existen dos), y asi mantener la coherencia del idioma que se perderia con los doblajes 😀

Ficha técnica

Video trailer de la película

Enlaces de descarga

Rip de Bluray

Descargar Babel (2006) REMUX 1080p SUB


Aportes de DPeliculasHDmega la pass es:dpeliculashdmega.org Aportes de CinemaniaHD la pass es:cinemaniahdd.com
Guardado en : Drama , Remux

Películas relacionadas

  • Un mundo extraño (2022) REMUX 1080p Latino

    Un mundo extraño (2022) REMUX 1080p Latino

    2022
    Un mundo extraño (2022) REMUX 1080p Latino

    1h 42m 2022

    Descargar Un mundo extraño (2022) REMUX 1080p. Un viaje a una tierra inexplorada y traicionera en la...

    Director: Thai Bettistea

    Género: Animación

    Actores: Reed Buck

  • Stromboli (2022) NF WEB-DL 1080p Latino

    Stromboli (2022) NF WEB-DL 1080p Latino

    2022
    Stromboli (2022) NF WEB-DL 1080p Latino

    1h 26m 2022

    Descargar Stromboli (2022) NF WEB-DL 1080p Latino. Sara, una mujer que se ha divorciado recientemente,...

    Director: Michiel van Erp

    Género: Drama

    Actores: Tim McInnerny

  • Infiesto (2023) NF WEB-DL 1080p Castellano

    Infiesto (2023) NF WEB-DL 1080p Castellano

    2023
    Infiesto (2023) NF WEB-DL 1080p Castellano

    1h 36m 2023

    Descargar Infiesto (2023) NF WEB-DL 1080p Castellano. Mientras el coronavirus trastoca sus vidas, dos...

    Director: Patxi Amezcua

    Género: Crimen

    Actores: Luis Zahera

  • Espiritu Libre (2023) NF WEB-DL 1080p Latino

    Espiritu Libre (2023) NF WEB-DL 1080p Latino

    2023
    Espiritu Libre (2023) NF WEB-DL 1080p Latino

    1h 49m 2023

    Descargar Espiritu Libre (2023) NF WEB-DL 1080p Latino. La película se basa en la increíble historia...

    Director: Sarah Spillane

    Género: Aventura

    Actores: Vivien Turner

descargar Babel (2006) REMUX 1080p SUB Full 1080p 1080p gratis, Babel (2006) REMUX 1080p SUB Full 1080p mega 1 link, Babel (2006) REMUX 1080p SUB Full 1080p pelicula completa, descargar Babel (2006) REMUX 1080p SUB Full 1080p gratis en mega.

Babel (2006) REMUX 1080p SUB pelicula full hd, Babel (2006) REMUX 1080p SUB mega latino, Babel (2006) REMUX 1080p SUB 4k latino, Babel (2006) REMUX 1080p SUB pelicula completa, Babel (2006) REMUX 1080p SUB descargar gratis, descargar Babel (2006) REMUX 1080p SUB pelicula latino, Babel (2006) REMUX 1080p SUB 1 link mega, Babel (2006) REMUX 1080p SUB 1 link google drive, Babel (2006) REMUX 1080p SUB hd 1080p latino.
Comentarios 0