×

¿Problemas para descargar con Mozilla, EDGE? Deshabilita la opción "Abrir vinculos en una pestaña nueva" tal como lo muestra ésta imagen.

Babel (2006) 1080p SUB

32 vistas

Información de Babel (2006) 1080p SUB

Datos de la película

  • Calidad: 1080p
  • Audio: Se especifica abajo de la Sinopsis
  • Subtitulos: Español Latino SRT
  • Resolución: 1920x1080p
  • Formato: MKV
  • Codec: H.264
  • Encoder: CinefiloCool
  • Mediainfo: Clic para Mostrar Datos Ver
  • Babel (2006) 1080p ORG SUB-CMHDD.mkv
    Format                      : Matroska
    Format version              : Version 4
    File size                   : 4.65 GiB
    Duration                    : 2 h 23 min
    Overall bit rate            : 4 640 kb/s
    Movie name                  : Babel (2006) CinemaniaHDD.Net
    Encoded date                : UTC 2022-12-30 05:00:18
    Writing application         : mkvmerge v56.1.0 ('My Friend') 64-bit
    Writing library             : libebml v1.4.2 + libmatroska v1.6.4
    Attachments                 : CINEMANIAHD.png

    Video
    ID                          : 1
    Format                      : AVC
    Format/Info                 : Advanced Video Codec
    Format profile              : High@L4.1
    Format settings             : CABAC / 4 Ref Frames
    Format settings, CABAC      : Yes
    Format settings, Reference  : 4 frames
    Codec ID                    : V_MPEG4/ISO/AVC
    Duration                    : 2 h 23 min
    Bit rate                    : 4 000 kb/s
    Width                       : 1 920 pixels
    Height                      : 1 080 pixels
    Display aspect ratio        : 16:9
    Frame rate mode             : Constant
    Frame rate                  : 23.976 (24000/1001) FPS
    Color space                 : YUV
    Chroma subsampling          : 4:2:0
    Bit depth                   : 8 bits
    Scan type                   : Progressive
    Bits/(Pixel*Frame)          : 0.080
    Stream size                 : 4.01 GiB (86%)
    Title                       : HD1080p [CinemaniaHDD]
    Writing library             : x264 core 163 r3059 b684ebe0
    Encoding settings           : cabac=1 / ref=4 / deblock=1:-2:-2 / analyse=0x3:0x133 / me=umh / subme=9 / psy=1 / psy_rd=1.00:0.25 / mixed_ref=1 / me_range=16 / chroma_me=1 / trellis=2 / 8x8dct=1 / cqm=0 / deadzone=6,6 / fast_pskip=1 / chroma_qp_offset=-4 / threads=24 / lookahead_threads=2 / sliced_threads=0 / nr=0 / decimate=0 / interlaced=0 / bluray_compat=0 / constrained_intra=0 / bframes=3 / b_pyramid=2 / b_adapt=2 / b_bias=0 / direct=3 / weightb=1 / open_gop=0 / weightp=2 / keyint=240 / keyint_min=24 / scenecut=40 / intra_refresh=0 / rc_lookahead=60 / rc=2pass / mbtree=1 / bitrate=4000 / ratetol=1.0 / qcomp=0.80 / qpmin=0 / qpmax=69 / qpstep=4 / cplxblur=20.0 / qblur=0.5 / vbv_maxrate=62500 / vbv_bufsize=78125 / nal_hrd=none / filler=0 / ip_ratio=1.10 / aq=1:0.50
    Default                     : Yes
    Forced                      : Yes
    Color range                 : Limited
    Color primaries             : BT.709
    Transfer characteristics    : BT.709
    Matrix coefficients         : BT.709

    Audio
    ID                          : 2
    ID in the original source m : 4354 (0x1102)
    Format                      : AC-3
    Format/Info                 : Audio Coding 3
    Commercial name             : Dolby Digital
    Codec ID                    : A_AC3
    Duration                    : 2 h 23 min
    Bit rate mode               : Constant
    Bit rate                    : 640 kb/s
    Channel(s)                  : 6 channels
    Channel layout              : L R C LFE Ls Rs
    Sampling rate               : 48.0 kHz
    Frame rate                  : 31.250 FPS (1536 SPF)
    Compression mode            : Lossy
    Stream size                 : 657 MiB (14%)
    Title                       : Ingles-MULTI ORG [CinemaniaHDD]
    Language                    : English
    Service kind                : Complete Main
    Default                     : Yes
    Forced                      : Yes
    Original source medium      : Blu-ray

    Text
    ID                          : 3
    Format                      : UTF-8
    Codec ID                    : S_TEXT/UTF8
    Codec ID/Info               : UTF-8 Plain Text
    Duration                    : 2 h 14 min
    Bit rate                    : 24 b/s
    Count of elements           : 777
    Stream size                 : 23.7 KiB (0%)
    Title                       : Español-SRT [CinemaniaHDD]
    Default                     : Yes
    Forced                      : Yes

    Menu
    00:00:00.000                : Chapter 01
    00:08:50.363                : Chapter 02
    00:14:27.575                : Chapter 03
    00:19:38.885                : Chapter 04
    00:27:53.587                : Chapter 05
    00:30:53.726                : Chapter 06
    00:35:41.764                : Chapter 07
    00:44:28.666                : Chapter 08
    00:50:02.748                : Chapter 09
    00:55:55.101                : Chapter 10
    01:01:18.548                : Chapter 11
    01:05:09.280                : Chapter 12
    01:15:25.479                : Chapter 13
    01:20:19.564                : Chapter 14
    01:30:08.528                : Chapter 15
    01:34:31.872                : Chapter 16
    01:42:57.337                : Chapter 17
    01:45:00.042                : Chapter 18
    01:53:15.497                : Chapter 19
    01:57:26.497                : Chapter 20
    01:59:30.496                : Chapter 21
    02:02:12.033                : Chapter 22
    02:08:46.719                : Chapter 23
    02:16:06.158                : Chapter 24

  • Peso: 4.65 GiB

Sinopsis

Descargar Babel (2006) 1080p SUB. Ambientada en Marruecos, Túnez, México y Japón. Armados con un Winchester, dos muchachos marroquíes salen en busca del rebaño de cabras de la familia. En medio del silencio del desierto, deciden probar el rifle, sin conocer el alcance de la bala. En un instante, entran en colisión las vidas de cuatro grupos de personas que viven en tres continentes distintos.

Audio Multi Languaje AC3 5.1 Bluray

Nota:
El Idioma original ademas del español, es una combinación entre multiples idiomas por eso opté por dejarlo de esa manera y no inlcuir los doblajes (que de hecho existen dos), y asi mantener la coherencia del idioma que se perderia con los doblajes 😀

Ficha técnica

Video trailer de la película

Enlaces de descarga

Aportes de DPeliculasHDmega la pass es:dpeliculashdmega.org Aportes de CinemaniaHD la pass es:cinemaniahdd.com
Guardado en : Drama , HD 1080p

Películas relacionadas

  • El discurso del Rey (2010) 1080p Latino

    El discurso del Rey (2010) 1080p Latino

    2010
    El discurso del Rey (2010) 1080p Latino

    1h 58m 2010

    Descargar El discurso del Rey (2010) 1080p Latino. El duque de York se convirtió en rey de Gran Bretaña...

    Director: Tom Hooper

    Género: Drama

    Actores: Tony Earnshaw

  • El discurso del Rey (2010) Full HD 1080p Latino

    El discurso del Rey (2010) Full HD 1080p Latino

    2010
    El discurso del Rey (2010) Full HD 1080p Latino

    1h 58m 2010

    Descargar El discurso del Rey (2010) Full HD 1080p Latino. El duque de York se convirtió en rey de Gran...

    Director: Tom Hooper

    Género: Drama

    Actores: Tony Earnshaw

  • El discurso del Rey (2010) REMUX 1080p Latino

    El discurso del Rey (2010) REMUX 1080p Latino

    2010
    El discurso del Rey (2010) REMUX 1080p Latino

    1h 58m 2010

    Descargar El discurso del Rey (2010) REMUX 1080p Latino. El duque de York se convirtió en rey de Gran...

    Director: Tom Hooper

    Género: Drama

    Actores: Tony Earnshaw

  • 8 Mile (2002) REMUX 4K HDR Latino – CMHDD

    8 Mile (2002) REMUX 4K HDR Latino – CMHDD

    2002
    8 Mile (2002) REMUX 4K HDR Latino – CMHDD

    1h 50m 2002

    Detroit, 1995. La promesa de potencia industrial se ha transformado en un hervidero de conflictos económicos...

    Director: Michael J. Moore

    Género: Drama

    Actores: Xzibit

descargar Babel (2006) 1080p SUB 1080p 1080p gratis, Babel (2006) 1080p SUB 1080p mega 1 link, Babel (2006) 1080p SUB 1080p pelicula completa, descargar Babel (2006) 1080p SUB 1080p gratis en mega.

Babel (2006) 1080p SUB pelicula full hd, Babel (2006) 1080p SUB mega latino, Babel (2006) 1080p SUB 4k latino, Babel (2006) 1080p SUB pelicula completa, Babel (2006) 1080p SUB descargar gratis, descargar Babel (2006) 1080p SUB pelicula latino, Babel (2006) 1080p SUB 1 link mega, Babel (2006) 1080p SUB 1 link google drive, Babel (2006) 1080p SUB hd 1080p latino.
Comentarios 0