×

¿Problemas para descargar con Mozilla, EDGE? Deshabilita la opción "Abrir vinculos en una pestaña nueva" tal como lo muestra ésta imagen.

Babel (2006) Full HD 1080p SUB

37 vistas

Información de Babel (2006) Full HD 1080p SUB

Datos de la película

  • Calidad: Full 1080p
  • Audio: Se especifica abajo de la Sinopsis
  • Subtitulos: Español Latino PGS - Ingles PGS
  • Resolución: 1920x1080p
  • Formato: MKV
  • Codec: H.264
  • Encoder: CinefiloCool
  • Mediainfo: Clic para Mostrar Datos Ver
  • Babel (2006) Full HD 1080p ORG SUB-CMHDD.mkv
    Format                      : Matroska
    Format version              : Version 4
    File size                   : 18.9 GiB
    Duration                    : 2 h 23 min
    Overall bit rate            : 18.8 Mb/s
    Movie name                  : Babel (2006) CinemaniaHDD.Net
    Encoded date                : UTC 2022-12-29 07:13:18
    Writing application         : mkvmerge v56.1.0 ('My Friend') 64-bit
    Writing library             : libebml v1.4.2 + libmatroska v1.6.4
    Attachments                 : CINEMANIAHD.png

    Video
    ID                          : 1
    Format                      : AVC
    Format/Info                 : Advanced Video Codec
    Format profile              : High@L4.1
    Format settings             : CABAC / 4 Ref Frames
    Format settings, CABAC      : Yes
    Format settings, Reference  : 4 frames
    Codec ID                    : V_MPEG4/ISO/AVC
    Duration                    : 2 h 23 min
    Bit rate                    : 18.2 Mb/s
    Width                       : 1 920 pixels
    Height                      : 1 080 pixels
    Display aspect ratio        : 16:9
    Frame rate mode             : Constant
    Frame rate                  : 23.976 (24000/1001) FPS
    Color space                 : YUV
    Chroma subsampling          : 4:2:0
    Bit depth                   : 8 bits
    Scan type                   : Progressive
    Bits/(Pixel*Frame)          : 0.366
    Stream size                 : 18.2 GiB (97%)
    Title                       : Full HD1080p [CinemaniaHDD]
    Writing library             : x264 core 163 r3059 b684ebe0
    Encoding settings           : cabac=1 / ref=4 / deblock=1:0:0 / analyse=0x3:0x133 / me=tesa / subme=11 / psy=1 / psy_rd=1.00:0.00 / mixed_ref=1 / me_range=24 / chroma_me=1 / trellis=2 / 8x8dct=1 / cqm=0 / deadzone=21,11 / fast_pskip=0 / chroma_qp_offset=-2 / threads=24 / lookahead_threads=6 / sliced_threads=0 / nr=0 / decimate=1 / interlaced=0 / bluray_compat=0 / constrained_intra=0 / bframes=16 / b_pyramid=2 / b_adapt=2 / b_bias=0 / direct=3 / weightb=1 / open_gop=0 / weightp=2 / keyint=240 / keyint_min=24 / scenecut=40 / intra_refresh=0 / rc_lookahead=60 / rc=crf / mbtree=1 / crf=20.0 / qcomp=0.60 / qpmin=0 / qpmax=69 / qpstep=4 / vbv_maxrate=62500 / vbv_bufsize=78125 / crf_max=0.0 / nal_hrd=none / filler=0 / ip_ratio=1.40 / aq=1:1.00
    Default                     : Yes
    Forced                      : Yes
    Color range                 : Limited
    Color primaries             : BT.709
    Transfer characteristics    : BT.709
    Matrix coefficients         : BT.709

    Audio
    ID                          : 2
    ID in the original source m : 4354 (0x1102)
    Format                      : AC-3
    Format/Info                 : Audio Coding 3
    Commercial name             : Dolby Digital
    Codec ID                    : A_AC3
    Duration                    : 2 h 23 min
    Bit rate mode               : Constant
    Bit rate                    : 640 kb/s
    Channel(s)                  : 6 channels
    Channel layout              : L R C LFE Ls Rs
    Sampling rate               : 48.0 kHz
    Frame rate                  : 31.250 FPS (1536 SPF)
    Compression mode            : Lossy
    Stream size                 : 657 MiB (3%)
    Title                       : Ingles AC3-ORG [CinemaniaHDD]
    Language                    : English
    Service kind                : Complete Main
    Default                     : Yes
    Forced                      : Yes
    Original source medium      : Blu-ray

    Text #1
    ID                          : 3
    ID in the original source m : 4610 (0x1202)
    Format                      : PGS
    Muxing mode                 : zlib
    Codec ID                    : S_HDMV/PGS
    Codec ID/Info               : Picture based subtitle format used on BDs/HD-DVDs
    Duration                    : 2 h 14 min
    Bit rate                    : 15.2 kb/s
    Count of elements           : 1554
    Stream size                 : 14.6 MiB (0%)
    Title                       : Español-PGS [CinemaniaHDD]
    Language                    : Spanish
    Default                     : No
    Forced                      : No
    Original source medium      : Blu-ray

    Text #2
    ID                          : 4
    ID in the original source m : 4608 (0x1200)
    Format                      : PGS
    Muxing mode                 : zlib
    Codec ID                    : S_HDMV/PGS
    Codec ID/Info               : Picture based subtitle format used on BDs/HD-DVDs
    Duration                    : 2 h 11 min
    Bit rate                    : 20.9 kb/s
    Count of elements           : 1882
    Stream size                 : 19.7 MiB (0%)
    Title                       : Ingles-PGS [CinemaniaHDD]
    Language                    : English
    Default                     : No
    Forced                      : No
    Original source medium      : Blu-ray

    Text #3
    ID                          : 5
    Format                      : UTF-8
    Codec ID                    : S_TEXT/UTF8
    Codec ID/Info               : UTF-8 Plain Text
    Duration                    : 2 h 14 min
    Bit rate                    : 24 b/s
    Count of elements           : 777
    Stream size                 : 23.7 KiB (0%)
    Title                       : Español-SRT [CinemaniaHDD]
    Default                     : Yes
    Forced                      : Yes

    Menu
    00:00:00.000                : Chapter 01
    00:08:50.363                : Chapter 02
    00:14:27.575                : Chapter 03
    00:19:38.885                : Chapter 04
    00:27:53.587                : Chapter 05
    00:30:53.726                : Chapter 06
    00:35:41.764                : Chapter 07
    00:44:28.666                : Chapter 08
    00:50:02.748                : Chapter 09
    00:55:55.101                : Chapter 10
    01:01:18.548                : Chapter 11
    01:05:09.280                : Chapter 12
    01:15:25.479                : Chapter 13
    01:20:19.564                : Chapter 14
    01:30:08.528                : Chapter 15
    01:34:31.872                : Chapter 16
    01:42:57.337                : Chapter 17
    01:45:00.042                : Chapter 18
    01:53:15.497                : Chapter 19
    01:57:26.497                : Chapter 20
    01:59:30.496                : Chapter 21
    02:02:12.033                : Chapter 22
    02:08:46.719                : Chapter 23
    02:16:06.158                : Chapter 24

  • Peso: 18.9 GiB

Sinopsis

Descargar Babel (2006) Full HD 1080p SUB. Ambientada en Marruecos, Túnez, México y Japón. Armados con un Winchester, dos muchachos marroquíes salen en busca del rebaño de cabras de la familia. En medio del silencio del desierto, deciden probar el rifle, sin conocer el alcance de la bala. En un instante, entran en colisión las vidas de cuatro grupos de personas que viven en tres continentes distintos.

Audio Multi Languaje AC3 5.1 Bluray

Nota:
El Idioma original ademas del español, es una combinación entre multiples idiomas por eso opté por dejarlo de esa manera y no inlcuir los doblajes (que de hecho existen dos), y asi mantener la coherencia del idioma que se perderia con los doblajes 😀

Ficha técnica

Video trailer de la película

Enlaces de descarga

Rip de Bluray

Descargar Babel (2006) Full HD 1080p SUB




Aportes de DPeliculasHDmega la pass es:dpeliculashdmega.org Aportes de CinemaniaHD la pass es:cinemaniahdd.com

Películas relacionadas

descargar Babel (2006) Full HD 1080p SUB Full 1080p 1080p gratis, Babel (2006) Full HD 1080p SUB Full 1080p mega 1 link, Babel (2006) Full HD 1080p SUB Full 1080p pelicula completa, descargar Babel (2006) Full HD 1080p SUB Full 1080p gratis en mega.

Babel (2006) Full HD 1080p SUB pelicula full hd, Babel (2006) Full HD 1080p SUB mega latino, Babel (2006) Full HD 1080p SUB 4k latino, Babel (2006) Full HD 1080p SUB pelicula completa, Babel (2006) Full HD 1080p SUB descargar gratis, descargar Babel (2006) Full HD 1080p SUB pelicula latino, Babel (2006) Full HD 1080p SUB 1 link mega, Babel (2006) Full HD 1080p SUB 1 link google drive, Babel (2006) Full HD 1080p SUB hd 1080p latino.
Comentarios 0