Birds of Prey (2020) Full HD 1080p latino

161 vistas
1 estrella2 estrellas3 estrellas4 estrellas5 estrellas (1 votos, promedio: 5,00 de 5)
Cargando…

Información de Birds of Prey (2020) Full HD 1080p latino

Datos de la película

  • Calidad: Full 1080p
  • Audio: Se especifica abajo de la Sinopsis
  • Subtitulos: Español Latino PGS - Ingles PGS
  • Resolución: 1920x1080p
  • Formato: MKV
  • Codec: H.264
  • Encoder: CinefiloCool
  • Mediainfo: Clic para Mostrar Datos Ver
  • Aves de presa (2020) Full HD 1080p Latino-CMHDD.mkv
    Format                      : Matroska
    Format version              : Version 4
    File size                   : 9.35 GiB
    Duration                    : 1 h 48 min
    Overall bit rate mode       : Variable
    Overall bit rate            : 12.3 Mb/s
    Movie name                  : Birds Of Prey (2020) CinemaniaHDD.Net
    Encoded date                : UTC 2020-05-03 20:42:18
    Writing application         : mkvmerge v42.0.0 ('Overtime') 64-bit
    Writing library             : libebml v1.3.10 + libmatroska v1.5.2
    Attachments                 : CINEMANIAHD.png

    Video
    ID                          : 1
    Format                      : AVC
    Format/Info                 : Advanced Video Codec
    Format profile              : High@L4.1
    Format settings             : CABAC / 4 Ref Frames
    Format settings, CABAC      : Yes
    Format settings, ReFrames   : 4 frames
    Codec ID                    : V_MPEG4/ISO/AVC
    Duration                    : 1 h 48 min
    Bit rate                    : 7 428 kb/s
    Width                       : 1 920 pixels
    Height                      : 1 080 pixels
    Display aspect ratio        : 16:9
    Frame rate mode             : Constant
    Frame rate                  : 23.976 (24000/1001) FPS
    Color space                 : YUV
    Chroma subsampling          : 4:2:0
    Bit depth                   : 8 bits
    Scan type                   : Progressive
    Bits/(Pixel*Frame)          : 0.149
    Stream size                 : 5.65 GiB (60%)
    Title                       : Full HD1080p [CinemaniaHDD]
    Writing library             : x264 core 157 r2935 545de2f
    Encoding settings           : cabac=1 / ref=4 / deblock=1:0:0 / analyse=0x3:0x133 / me=tesa / subme=11 / psy=1 / psy_rd=1.00:0.00 / mixed_ref=1 / me_range=24 / chroma_me=1 / trellis=2 / 8x8dct=1 / cqm=0 / deadzone=21,11 / fast_pskip=0 / chroma_qp_offset=-2 / threads=34 / lookahead_threads=8 / sliced_threads=0 / nr=0 / decimate=1 / interlaced=0 / bluray_compat=0 / constrained_intra=0 / bframes=16 / b_pyramid=2 / b_adapt=2 / b_bias=0 / direct=3 / weightb=1 / open_gop=0 / weightp=2 / keyint=240 / keyint_min=24 / scenecut=40 / intra_refresh=0 / rc_lookahead=60 / rc=crf / mbtree=1 / crf=19.0 / qcomp=0.60 / qpmin=0 / qpmax=69 / qpstep=4 / vbv_maxrate=62500 / vbv_bufsize=78125 / crf_max=0.0 / nal_hrd=none / filler=0 / ip_ratio=1.40 / aq=1:1.00
    Default                     : Yes
    Forced                      : Yes
    Color range                 : Limited
    Color primaries             : BT.709
    Transfer characteristics    : BT.709
    Matrix coefficients         : BT.709

    Audio #1
    ID                          : 2
    Format                      : AC-3
    Format/Info                 : Audio Coding 3
    Commercial name             : Dolby Digital
    Codec ID                    : A_AC3
    Duration                    : 1 h 48 min
    Bit rate mode               : Constant
    Bit rate                    : 448 kb/s
    Channel(s)                  : 6 channels
    Channel layout              : L R C LFE Ls Rs
    Sampling rate               : 48.0 kHz
    Frame rate                  : 31.250 FPS (1536 SPF)
    Bit depth                   : 16 bits
    Compression mode            : Lossy
    Stream size                 : 349 MiB (4%)
    Title                       : Español Latino [CinemaniaHDD]
    Language                    : Spanish
    Service kind                : Complete Main
    Default                     : Yes
    Forced                      : No

    Audio #2
    ID                          : 3
    Format                      : MLP FBA 16-ch
    Format/Info                 : Meridian Lossless Packing FBA with 16-channel presentation
    Commercial name             : Dolby TrueHD with Dolby Atmos
    Codec ID                    : A_TRUEHD
    Duration                    : 1 h 48 min
    Bit rate mode               : Variable
    Bit rate                    : 3 686 kb/s
    Maximum bit rate            : 6 912 kb/s
    Channel(s)                  : 8 channels
    Channel layout              : L R C LFE Ls Rs Lb Rb
    Sampling rate               : 48.0 kHz
    Frame rate                  : 1 200.000 FPS (40 SPF)
    Compression mode            : Lossless
    Stream size                 : 2.80 GiB (30%)
    Title                       : Ingles [CinemaniaHDD]
    Language                    : English
    Default                     : No
    Forced                      : No
    Number of dynamic objects   : 15
    Bed channel count           : 1 channel
    Bed channel configuration   : LFE

    Audio #3
    ID                          : 4
    Format                      : AC-3
    Format/Info                 : Audio Coding 3
    Commercial name             : Dolby Digital
    Codec ID                    : A_AC3
    Duration                    : 1 h 48 min
    Bit rate mode               : Constant
    Bit rate                    : 640 kb/s
    Channel(s)                  : 6 channels
    Channel layout              : L R C LFE Ls Rs
    Sampling rate               : 48.0 kHz
    Frame rate                  : 31.250 FPS (1536 SPF)
    Bit depth                   : 16 bits
    Compression mode            : Lossy
    Stream size                 : 499 MiB (5%)
    Title                       : Ingles AC3 [CinemaniaHDD]
    Language                    : English
    Service kind                : Complete Main
    Default                     : No
    Forced                      : No

    Text #1
    ID                          : 5
    Format                      : PGS
    Muxing mode                 : zlib
    Codec ID                    : S_HDMV/PGS
    Codec ID/Info               : Picture based subtitle format used on BDs/HD-DVDs
    Duration                    : 1 h 33 min
    Bit rate                    : 154 b/s
    Count of elements           : 14
    Stream size                 : 106 KiB (0%)
    Title                       : Forzados-PGS [CinemaniaHDD]
    Language                    : Spanish
    Default                     : Yes
    Forced                      : No

    Text #2
    ID                          : 6
    Format                      : PGS
    Muxing mode                 : zlib
    Codec ID                    : S_HDMV/PGS
    Codec ID/Info               : Picture based subtitle format used on BDs/HD-DVDs
    Duration                    : 1 h 48 min
    Bit rate                    : 33.4 kb/s
    Count of elements           : 2926
    Stream size                 : 25.9 MiB (0%)
    Title                       : Español-PGS [CinemaniaHDD]
    Language                    : Spanish
    Default                     : No
    Forced                      : No

    Text #3
    ID                          : 7
    Format                      : PGS
    Muxing mode                 : zlib
    Codec ID                    : S_HDMV/PGS
    Codec ID/Info               : Picture based subtitle format used on BDs/HD-DVDs
    Duration                    : 1 h 48 min
    Bit rate                    : 44.5 kb/s
    Count of elements           : 3876
    Stream size                 : 34.5 MiB (0%)
    Title                       : Ingles-PGS [CinemaniaHDD]
    Language                    : English
    Default                     : No
    Forced                      : No

    Text #4
    ID                          : 8
    Format                      : UTF-8
    Codec ID                    : S_TEXT/UTF8
    Codec ID/Info               : UTF-8 Plain Text
    Duration                    : 20 min 2 s
    Bit rate                    : 0 b/s
    Count of elements           : 4
    Stream size                 : 73.0 Bytes (0%)
    Title                       : Forzados-SRT [CinemaniaHDD]
    Language                    : Spanish
    Default                     : No
    Forced                      : No

    Text #5
    ID                          : 9
    Format                      : UTF-8
    Codec ID                    : S_TEXT/UTF8
    Codec ID/Info               : UTF-8 Plain Text
    Duration                    : 1 h 48 min
    Bit rate                    : 56 b/s
    Count of elements           : 1463
    Stream size                 : 44.5 KiB (0%)
    Title                       : Español-SRT [CinemaniaHDD]
    Language                    : Spanish
    Default                     : No
    Forced                      : No

    Menu
    00:00:01.100                : en:Studio Logos
    00:00:31.100                : en:Harley Quinn's backstory
    00:01:57.100                : en:Trying to get her life together
    00:05:44.100                : en:A chance to be a new woman
    00:08:00.100                : en:Title Sequence
    00:08:08.100                : en:Meet the cop
    00:10:45.100                : en:Roman Sionis aka Black Mask
    00:12:42.100                : en:Life without immunity
    00:17:53.100                : en:Montoya makes her case to the Captain
    00:21:38.100                : en:Ambush at the station
    00:23:56.100                : en:The Black Canary
    00:33:40.100                : en:Caught in the cross-hairs
    00:38:02.100                : en:An unexpected complication
    00:40:16.100                : en:An offer to help Sionis
    00:46:30.100                : en:Breaking Cass out of prison
    00:53:44.100                : en:Harley and Cass bond
    01:01:15.100                : en:The Huntress
    01:04:25.100                : en:Roman is losing it
    01:06:54.100                : en:Things get worse for Montoya
    01:08:10.100                : en:The cost of business
    01:14:08.100                : en:Meeting at the amusement park
    01:23:51.100                : en:Girl power
    01:29:54.100                : en:Black Canary has to sing
    01:31:26.100                : en:There is power in fear
    01:37:35.100                : en:The emancipation of everyone
    01:41:25.100                : en:End Credits

  • Peso: 9.35 GiB

Sinopsis

Descargar Birds of Prey (2020) Full HD 1080p latino. Después de separarse de Joker, Harley Quinn y otras tres heroínas (Canario Negro, Cazadora y Renée Montoya) unen sus fuerzas para salvar a una niña (Cassandra Cain) del malvado rey del crimen Máscara Negra.

Audio Español Latino AC3 5.1 Bluray – Ingles TrueHD 7.1 + AC3 5.1 Bluray

Ficha técnica

Video trailer de la película

Enlaces de descarga

Rip de Bluray

Descargar Birds of Prey (2020) Full HD 1080p latino




Aportes de DPeliculasHDmega la pass es:dpeliculashdmega.org Aportes de CinemaniaHD la pass es:cinemaniahdd.com

Películas relacionadas

  • Amenaza Roja (2012) HD 1080p Latino

    Amenaza Roja (2012) HD 1080p Latino

    2012
    Amenaza Roja (2012) HD 1080p Latino

    5.0 1h 33m 2012

    Remake de la película de 1984 de John Milius que narraba cómo ocho adolescentes huían a las montañas...

    Director: Joe Camp III

    Género: Acción

    Actores: Zachary Schafer

  • Amenaza Roja (2012) PLACEBO Full HD 1080p Latino

    Amenaza Roja (2012) PLACEBO Full HD 1080p Latino

    2012
    Amenaza Roja (2012) PLACEBO Full HD 1080p Latino

    5.0 1h 33m 2012

    Remake de la película de 1984 de John Milius que narraba cómo ocho adolescentes huían a las montañas...

    Director: Joe Camp III

    Género: Acción

    Actores: Zachary Schafer

  • Amenaza Roja (2012) REMUX 1080p Latino

    Amenaza Roja (2012) REMUX 1080p Latino

    2012
    Amenaza Roja (2012) REMUX 1080p Latino

    5.0 1h 33m 2012

    Remake de la película de 1984 de John Milius que narraba cómo ocho adolescentes huían a las montañas...

    Director: Joe Camp III

    Género: Acción

    Actores: Zachary Schafer

  • Beethoven (1992) HD 1080p Latino – CMHDD

    Beethoven (1992) HD 1080p Latino – CMHDD

    1992
    Beethoven (1992) HD 1080p Latino – CMHDD

    0.0 1h 25m 1992

    El pobre Beethoven, un perro San Bernardo, escapa milagrosamente de las garras de una banda de ladrones...

    Director: Todd Corman

    Género: Comedia

    Actores: Stephanie Durrer

  • Beethoven (1992) Full HD 1080p Latino – CMHDD

    Beethoven (1992) Full HD 1080p Latino – CMHDD

    1992
    Beethoven (1992) Full HD 1080p Latino – CMHDD

    5.0 1h 25m 1992

    El pobre Beethoven, un perro San Bernardo, escapa milagrosamente de las garras de una banda de ladrones...

    Director: Todd Corman

    Género: Comedia

    Actores: Stephanie Durrer

Comentarios 1
  • ocpgaiden - 18 mayo, 2020

    Gracias por aves de presa full hd, saludos