×

¿Problemas para descargar con Mozilla, EDGE? Deshabilita la opción "Abrir vinculos en una pestaña nueva" tal como lo muestra ésta imagen.

Aventuras en la Escuela Pública (2018) REMUX 1080p Latino

329 vistas

Información de Aventuras en la Escuela Pública (2018) REMUX 1080p Latino

aventuras en la escuela publica 56701 poster

Datos de la película

  • Calidad: Full 1080p
  • Audio: Español Latino AC3 2.0 DVD - Ingles DTS 5.1 BLURAY
  • Subtitulos: Español Latino SRT
  • Resolución: 1920x1080p
  • Formato: MKV
  • Codec: H.264
  • Encoder: CinefiloCool
  • Mediainfo: Clic para Mostrar Datos Ver
  • Aventuras en la Escuela Pública (2018) REMUX 1080p Latino-CMHDD.mkv
    Format                      : Matroska
    Format version              : Version 4
    File size                   : 16.7 GiB
    Duration                    : 1 h 26 min
    Overall bit rate mode       : Variable
    Overall bit rate            : 27.8 Mb/s
    Movie name                  : CinemaniaHDD.Net
    Encoded date                : UTC 2019-09-09 01:48:00
    Writing application         : mkvmerge v35.0.0 ('All The Love In The World') 64-bit
    Writing library             : libebml v1.3.9 + libmatroska v1.5.2
    Attachments                 : CINEMANIAHD.png

    Video
    ID                          : 1
    Format                      : AVC
    Format/Info                 : Advanced Video Codec
    Format profile              : High@L4.1
    Format settings             : CABAC / 4 Ref Frames
    Format settings, CABAC      : Yes
    Format settings, ReFrames   : 4 frames
    Codec ID                    : V_MPEG4/ISO/AVC
    Duration                    : 1 h 26 min
    Bit rate mode               : Variable
    Bit rate                    : 23.9 Mb/s
    Maximum bit rate            : 38.0 Mb/s
    Width                       : 1 920 pixels
    Height                      : 1 080 pixels
    Display aspect ratio        : 16:9
    Frame rate mode             : Constant
    Frame rate                  : 23.976 (24000/1001) FPS
    Color space                 : YUV
    Chroma subsampling          : 4:2:0
    Bit depth                   : 8 bits
    Scan type                   : Progressive
    Bits/(Pixel*Frame)          : 0.481
    Stream size                 : 14.4 GiB (86%)
    Title                       : Full HD1080p [REMUX]
    Default                     : Yes
    Forced                      : Yes

    Audio #1
    ID                          : 2
    Format                      : AC-3
    Format/Info                 : Audio Coding 3
    Commercial name             : Dolby Digital
    Codec ID                    : A_AC3
    Duration                    : 1 h 26 min
    Bit rate mode               : Constant
    Bit rate                    : 256 kb/s
    Channel(s)                  : 2 channels
    Channel layout              : L R
    Sampling rate               : 48.0 kHz
    Frame rate                  : 31.250 FPS (1536 SPF)
    Bit depth                   : 16 bits
    Compression mode            : Lossy
    Stream size                 : 158 MiB (1%)
    Title                       : AC3_2.0_DVD_Esp
    Language                    : Spanish
    Service kind                : Complete Main
    Default                     : Yes
    Forced                      : Yes

    Audio #2
    ID                          : 3
    Format                      : DTS XLL
    Format/Info                 : Digital Theater Systems
    Commercial name             : DTS-HD Master Audio
    Codec ID                    : A_DTS
    Duration                    : 1 h 26 min
    Bit rate mode               : Variable
    Bit rate                    : 3 566 kb/s
    Channel(s)                  : 6 channels
    Channel layout              : C L R Ls Rs LFE
    Sampling rate               : 48.0 kHz
    Frame rate                  : 93.750 FPS (512 SPF)
    Bit depth                   : 24 bits
    Compression mode            : Lossless
    Stream size                 : 2.15 GiB (13%)
    Title                       : DTS-HD_5.1_Bluray_Eng
    Language                    : English
    Default                     : No
    Forced                      : No

    Text #1
    ID                          : 4
    Format                      : UTF-8
    Codec ID                    : S_TEXT/UTF8
    Codec ID/Info               : UTF-8 Plain Text
    Duration                    : 1 h 23 min
    Bit rate                    : 76 b/s
    Count of elements           : 1367
    Stream size                 : 46.5 KiB (0%)
    Title                       : Sub_Esp
    Language                    : Spanish
    Default                     : No
    Forced                      : No

    Text #2
    ID                          : 5
    Format                      : PGS
    Muxing mode                 : zlib
    Codec ID                    : S_HDMV/PGS
    Codec ID/Info               : Picture based subtitle format used on BDs/HD-DVDs
    Duration                    : 1 h 25 min
    Bit rate                    : 93.3 kb/s
    Count of elements           : 3144
    Stream size                 : 57.0 MiB (0%)
    Title                       : Sub_Eng [PGS]
    Language                    : English
    Default                     : No
    Forced                      : No

    Menu
    00:00:00.000                : en:Chapter 1
    00:11:27.562                : en:Chapter 2
    00:21:30.581                : en:Chapter 3
    00:30:40.672                : en:Chapter 4
    00:43:32.610                : en:Chapter 5
    00:55:08.889                : en:Chapter 6
    01:03:46.656                : en:Chapter 7
    01:13:10.344                : en:Chapter 8

  • Peso: 16.7 GiB

Sinopsis

Descargar Aventuras en la Escuela Pública (2018) REMUX 1080p Latino. Un joven extraordinariamente inteligente que ha estudiado siempre en casa se enamora de una chica a la que le falta una pierna y se inscribe en la escuela pública para aprender a relacionarse con los demás. El choque cultural que enfrenta es enorme.

Ficha técnica

  • Titulo original: Adventures in Public School
  • Fecha de lanzamiento: 06-09-2018
  • Director: Kyle Rideout
  • Género: Comedia, Remux

Video trailer de la película

Enlaces de descarga

Rip de Bluray

Descargar Aventuras en la Escuela Pública (2018) REMUX 1080p Latino




Aportes de DPeliculasHDmega la pass es:dpeliculashdmega.org Aportes de CinemaniaHD la pass es:cinemaniahdd.com
Guardado en : Comedia , Remux

Películas relacionadas

descargar Aventuras en la Escuela Pública (2018) REMUX 1080p Latino Full 1080p 1080p gratis, Aventuras en la Escuela Pública (2018) REMUX 1080p Latino Full 1080p mega 1 link, Aventuras en la Escuela Pública (2018) REMUX 1080p Latino Full 1080p pelicula completa, descargar Aventuras en la Escuela Pública (2018) REMUX 1080p Latino Full 1080p gratis en mega.

Aventuras en la Escuela Pública (2018) REMUX 1080p Latino pelicula full hd, Aventuras en la Escuela Pública (2018) REMUX 1080p Latino mega latino, Aventuras en la Escuela Pública (2018) REMUX 1080p Latino 4k latino, Aventuras en la Escuela Pública (2018) REMUX 1080p Latino pelicula completa, Aventuras en la Escuela Pública (2018) REMUX 1080p Latino descargar gratis, descargar Aventuras en la Escuela Pública (2018) REMUX 1080p Latino pelicula latino, Aventuras en la Escuela Pública (2018) REMUX 1080p Latino 1 link mega, Aventuras en la Escuela Pública (2018) REMUX 1080p Latino 1 link google drive, Aventuras en la Escuela Pública (2018) REMUX 1080p Latino hd 1080p latino.
Comentarios 0