×

¿Problemas para descargar con Mozilla, EDGE? Deshabilita la opción "Abrir vinculos en una pestaña nueva" tal como lo muestra ésta imagen.

Aventuras en la Escuela Pública (2018) 1080p Latino

868 vistas

Información de Aventuras en la Escuela Pública (2018) 1080p Latino

aventuras en la escuela publica 56508 poster

Datos de la película

  • Calidad: 1080p
  • Audio: Español Latino AC3 2.0 DVD - Ingles AC3 5.1 BLURAY
  • Subtitulos: Español Latino SRT- FORZADOS SRT
  • Resolución: 1920x1040
  • Formato: MKV
  • Codec: H.264
  • Encoder: cinemaniahdd
  • Mediainfo: Clic para Mostrar Datos Ver
  • Aventuras en la Escuela Pública (2018) 1080p Latino.mkv
    Format                      : Matroska
    Format version              : Version 4
    File size                   : 2.50 GiB
    Duration                    : 1 h 26 min
    Overall bit rate            : 4 159 kb/s
    Movie name                  : Aventuras en la Escuela Pública (2018) 1080p Latino
    Encoded date                : UTC 2019-08-29 23:07:58
    Writing application         : mkvmerge v35.0.0 ('All The Love In The World') 64-bit
    Writing library             : libebml v1.3.9 + libmatroska v1.5.2

    Video
    ID                          : 1
    Format                      : AVC
    Format/Info                 : Advanced Video Codec
    Format profile              : High@L4
    Format settings             : CABAC / 4 Ref Frames
    Format settings, CABAC      : Yes
    Format settings, ReFrames   : 4 frames
    Codec ID                    : V_MPEG4/ISO/AVC
    Duration                    : 1 h 26 min
    Bit rate                    : 3 500 kb/s
    Width                       : 1 920 pixels
    Height                      : 1 040 pixels
    Display aspect ratio        : 1.85:1
    Frame rate mode             : Constant
    Frame rate                  : 23.976 (24000/1001) FPS
    Color space                 : YUV
    Chroma subsampling          : 4:2:0
    Bit depth                   : 8 bits
    Scan type                   : Progressive
    Bits/(Pixel*Frame)          : 0.073
    Stream size                 : 2.08 GiB (83%)
    Title                       : CinemaniaHDD
    Writing library             : x264 core 157 r2935 545de2f
    Encoding settings           : cabac=1 / ref=3 / deblock=1:0:0 / analyse=0x3:0x113 / me=hex / subme=7 / psy=1 / psy_rd=1.00:0.00 / mixed_ref=1 / me_range=16 / chroma_me=1 / trellis=1 / 8x8dct=1 / cqm=0 / deadzone=21,11 / fast_pskip=1 / chroma_qp_offset=-2 / threads=32 / lookahead_threads=5 / sliced_threads=0 / nr=0 / decimate=1 / interlaced=0 / bluray_compat=0 / constrained_intra=0 / bframes=3 / b_pyramid=2 / b_adapt=1 / b_bias=0 / direct=1 / weightb=1 / open_gop=0 / weightp=2 / keyint=240 / keyint_min=24 / scenecut=40 / intra_refresh=0 / rc_lookahead=40 / rc=abr / mbtree=1 / bitrate=3500 / ratetol=1.0 / qcomp=0.60 / qpmin=0 / qpmax=69 / qpstep=4 / vbv_maxrate=25000 / vbv_bufsize=31250 / nal_hrd=none / filler=0 / ip_ratio=1.40 / aq=1:1.00
    Default                     : Yes
    Forced                      : No
    Color range                 : Limited
    Color primaries             : BT.709
    Transfer characteristics    : BT.709
    Matrix coefficients         : BT.709

    Audio #1
    ID                          : 2
    Format                      : AC-3
    Format/Info                 : Audio Coding 3
    Commercial name             : Dolby Digital
    Codec ID                    : A_AC3
    Duration                    : 1 h 26 min
    Bit rate mode               : Constant
    Bit rate                    : 256 kb/s
    Channel(s)                  : 2 channels
    Channel layout              : L R
    Sampling rate               : 48.0 kHz
    Frame rate                  : 31.250 FPS (1536 SPF)
    Bit depth                   : 16 bits
    Compression mode            : Lossy
    Delay relative to video     : -5 ms
    Stream size                 : 158 MiB (6%)
    Title                       : Español latino [CinemaniaHDD]
    Language                    : Spanish
    Service kind                : Complete Main
    Default                     : Yes
    Forced                      : No

    Audio #2
    ID                          : 3
    Format                      : AC-3
    Format/Info                 : Audio Coding 3
    Commercial name             : Dolby Digital
    Codec ID                    : A_AC3
    Duration                    : 1 h 26 min
    Bit rate mode               : Constant
    Bit rate                    : 448 kb/s
    Channel(s)                  : 6 channels
    Channel layout              : L R C LFE Ls Rs
    Sampling rate               : 48.0 kHz
    Frame rate                  : 31.250 FPS (1536 SPF)
    Bit depth                   : 16 bits
    Compression mode            : Lossy
    Delay relative to video     : -5 ms
    Stream size                 : 276 MiB (11%)
    Title                       : Inglés [CinemaniaHDD]
    Language                    : English
    Service kind                : Complete Main
    Default                     : No
    Forced                      : No

    Text #1
    ID                          : 4
    Format                      : UTF-8
    Codec ID                    : S_TEXT/UTF8
    Codec ID/Info               : UTF-8 Plain Text
    Duration                    : 31 min 11 s
    Bit rate                    : 2 b/s
    Count of elements           : 18
    Stream size                 : 554 Bytes (0%)
    Title                       : Forzados [CinemaniaHDD]
    Language                    : Spanish
    Default                     : Yes
    Forced                      : Yes

    Text #2
    ID                          : 5
    Format                      : UTF-8
    Codec ID                    : S_TEXT/UTF8
    Codec ID/Info               : UTF-8 Plain Text
    Duration                    : 1 h 23 min
    Bit rate                    : 76 b/s
    Count of elements           : 1367
    Stream size                 : 46.5 KiB (0%)
    Title                       : Español latino [CinemaniaHDD]
    Language                    : Spanish
    Default                     : No
    Forced                      : No

    Menu
    00:00:00.000                : :Chapter 1
    00:11:27.645                : :Chapter 2
    00:21:30.581                : :Chapter 3
    00:30:40.672                : :Chapter 4
    00:43:32.610                : :Chapter 5
    00:55:08.972                : :Chapter 6
    01:03:46.656                : :Chapter 7
    01:13:10.386                : :Chapter 8

  • Peso: 2.50 GiB

Sinopsis

Un joven extraordinariamente inteligente que ha estudiado siempre en casa se enamora de una chica a la que le falta una pierna y se inscribe en la escuela pública para aprender a relacionarse con los demás. El choque cultural que enfrenta es enorme.

Ficha técnica

Video trailer de la película

Enlaces de descarga

Rip de Bluray

Descargar Aventuras en la Escuela Pública (2018) 1080p Latino




Aportes de DPeliculasHDmega la pass es:dpeliculashdmega.org Aportes de CinemaniaHD la pass es:cinemaniahdd.com
Guardado en : Comedia , HD 1080p

Películas relacionadas

  • Un mundo extraño (2022) HD 1080p Latino

    Un mundo extraño (2022) HD 1080p Latino

    2022
    Un mundo extraño (2022) HD 1080p Latino

    1h 42m 2022

    Descargar Un mundo extraño (2022) HD 1080p Latino. Los Clades son una familia conocida en todo el mundo,...

    Director: Thai Bettistea

    Género: Animación

    Actores: Reed Buck

  • Juego de espías (2001) 1080p Latino

    Juego de espías (2001) 1080p Latino

    2001
    Juego de espías (2001) 1080p Latino

    2h 6m 2001

    Descargar Juego de espías (2001) 1080p Latino. Corre el año 1991, y al veterano agente de la CIA Nathan...

    Director: Tony Scott

    Género: Acción

    Actores: Zsolt Zágoni

  • Hombre de familia (2000) REMUX 1080p Latino

    Hombre de familia (2000) REMUX 1080p Latino

    2000
    Hombre de familia (2000) REMUX 1080p Latino

    2h 1m 2000

    Descargar Hombre de familia (2000) REMUX 1080p Latino. Jack Campbell es un egocéntrico broker de Wall...

    Director: Robert Schroer

    Género: Comedia

    Actores: Wass Stevens

  • Te Amo Brother (2009) REMUX 1080p Latino

    Te Amo Brother (2009) REMUX 1080p Latino

    2009
    Te Amo Brother (2009) REMUX 1080p Latino

    1h 45m 2009

    Descargar Te Amo Brother (2009) REMUX 1080p Latino. Peter Klaven (Paul Rudd) es un joven que vive muy...

    Director: Scott Robertson

    Género: Comedia

    Actores: Vicki Davis

descargar Aventuras en la Escuela Pública (2018) 1080p Latino 1080p 1080p gratis, Aventuras en la Escuela Pública (2018) 1080p Latino 1080p mega 1 link, Aventuras en la Escuela Pública (2018) 1080p Latino 1080p pelicula completa, descargar Aventuras en la Escuela Pública (2018) 1080p Latino 1080p gratis en mega.

Aventuras en la Escuela Pública (2018) 1080p Latino pelicula full hd, Aventuras en la Escuela Pública (2018) 1080p Latino mega latino, Aventuras en la Escuela Pública (2018) 1080p Latino 4k latino, Aventuras en la Escuela Pública (2018) 1080p Latino pelicula completa, Aventuras en la Escuela Pública (2018) 1080p Latino descargar gratis, descargar Aventuras en la Escuela Pública (2018) 1080p Latino pelicula latino, Aventuras en la Escuela Pública (2018) 1080p Latino 1 link mega, Aventuras en la Escuela Pública (2018) 1080p Latino 1 link google drive, Aventuras en la Escuela Pública (2018) 1080p Latino hd 1080p latino.
Comentarios 0