Avengers Infinity War (2018) WEB-DL [Open Matte] 1080p Latino

4.896 vistas
1 estrella2 estrellas3 estrellas4 estrellas5 estrellas (11 votos, promedio: 5,00 de 5)
Cargando…

Información de Avengers Infinity War (2018) WEB-DL [Open Matte] 1080p Latino

Datos de la película

  • Calidad: WEBDL
  • Audio: Español Latino AC3 5.1 BLURAY - Ingles DTS 5.1 BLURAY
  • Subtitulos: Español Latino SRT- FORZADOS SRT
  • Resolución: 1920x1080p
  • Formato: MKV
  • Codec: H.264
  • Encoder: Dracarys
  • Mediainfo: Clic para Mostrar Datos Ver
  • Format                                   : Matroska
    Format version                           : Version 4 / Version 2
    File size                                : 7.55 GiB
    Duration                                 : 2 h 29 min
    Overall bit rate                         : 7 227 kb/s
    Movie name                               : CinemaniaHDD.net
    Encoded date                             : UTC 2018-08-18 03:34:12
    Writing application                      : mkvmerge v15.0.0 ('Duel with the Devil') 64-bit
    Writing library                          : libebml v1.3.5 + libmatroska v1.4.5

    Video
    ID                                       : 1
    Format                                   : AVC
    Format/Info                              : Advanced Video Codec
    Format profile                           : High@L4
    Format settings                          : CABAC / 4 Ref Frames
    Format settings, CABAC                   : Yes
    Format settings, RefFrames               : 4 frames
    Codec ID                                 : V_MPEG4/ISO/AVC
    Duration                                 : 2 h 29 min
    Bit rate                                 : 5 120 kb/s
    Width                                    : 1 920 pixels
    Height                                   : 1 080 pixels
    Display aspect ratio                     : 16:9
    Frame rate mode                          : Constant
    Frame rate                               : 23.976 (23976/1000) FPS
    Color space                              : YUV
    Chroma subsampling                       : 4:2:0
    Bit depth                                : 8 bits
    Scan type                                : Progressive
    Bits/(Pixel*Frame)                       : 0.103
    Stream size                              : 5.31 GiB (70%)
    Title                                    : Avengers Infinity War (2018) WEB-DL [Open Matte] 1080p Latino
    Writing library                          : x264 core 142
    Encoding settings                        : cabac=1 / ref=3 / deblock=1:0:0 / analyse=0x3:0x113 / me=hex / subme=7 / psy=1 / psy_rd=1.00:0.00 / mixed_ref=1 / me_range=16 / chroma_me=1 / trellis=1 / 8x8dct=1 / cqm=0 / deadzone=21,11 / fast_pskip=1 / chroma_qp_offset=-2 / threads=84 / lookahead_threads=8 / sliced_threads=0 / nr=0 / decimate=1 / interlaced=0 / bluray_compat=0 / constrained_intra=0 / bframes=6 / b_pyramid=2 / b_adapt=1 / b_bias=0 / direct=1 / weightb=1 / open_gop=0 / weightp=2 / keyint=50 / keyint_min=26 / scenecut=0 / intra_refresh=0 / rc_lookahead=40 / rc=2pass / mbtree=1 / bitrate=5120 / ratetol=1.0 / qcomp=0.60 / qpmin=0 / qpmax=69 / qpstep=4 / cplxblur=20.0 / qblur=0.5 / vbv_maxrate=7680 / vbv_bufsize=20480 / nal_hrd=none / filler=0 / ip_ratio=1.40 / aq=1:1.00
    Language                                 : English
    Default                                  : Yes
    Forced                                   : No

    Audio #1
    ID                                       : 2
    Format                                   : AC-3
    Format/Info                              : Audio Coding 3
    Format settings, Endianness              : Big
    Codec ID                                 : A_AC3
    Duration                                 : 2 h 29 min
    Bit rate mode                            : Constant
    Bit rate                                 : 640 kb/s
    Channel(s)                               : 6 channels
    Channel positions                        : Front: L C R, Side: L R, LFE
    Sampling rate                            : 48.0 kHz
    Frame rate                               : 31.250 FPS (1536 SPF)
    Bit depth                                : 16 bits
    Compression mode                         : Lossy
    Delay relative to video                  : 24 ms
    Stream size                              : 684 MiB (9%)
    Language                                 : Spanish
    Service kind                             : Complete Main
    Default                                  : Yes
    Forced                                   : No

    Audio #2
    ID                                       : 3
    Format                                   : DTS
    Format/Info                              : Digital Theater Systems
    Mode                                     : 16
    Format settings, Endianness              : Big
    Codec ID                                 : A_DTS
    Duration                                 : 2 h 29 min
    Bit rate mode                            : Constant
    Bit rate                                 : 1 509 kb/s
    Channel(s)                               : 6 channels
    Channel positions                        : Front: L C R, Side: L R, LFE
    Sampling rate                            : 48.0 kHz
    Frame rate                               : 93.750 FPS (512 SPF)
    Bit depth                                : 24 bits
    Compression mode                         : Lossy
    Stream size                              : 1.57 GiB (21%)
    Language                                 : English
    Default                                  : No
    Forced                                   : No

    Text #1
    ID                                       : 4
    Format                                   : UTF-8
    Codec ID                                 : S_TEXT/UTF8
    Codec ID/Info                            : UTF-8 Plain Text
    Duration                                 : 2 h 1 min
    Bit rate                                 : 0 b/s
    Count of elements                        : 8
    Stream size                              : 174 Bytes (0%)
    Title                                    : Forzados
    Language                                 : Spanish
    Default                                  : Yes
    Forced                                   : Yes

    Text #2
    ID                                       : 5
    Format                                   : UTF-8
    Codec ID                                 : S_TEXT/UTF8
    Codec ID/Info                            : UTF-8 Plain Text
    Duration                                 : 2 h 28 min
    Bit rate                                 : 39 b/s
    Count of elements                        : 1573
    Stream size                              : 42.6 KiB (0%)
    Language                                 : Spanish
    Default                                  : No
    Forced                                   : No

    Menu
    00:00:00.000                             : :Chapter 1
    00:11:28.730                             : :Chapter 2
    00:18:13.884                             : :Chapter 3
    00:27:23.809                             : :Chapter 4
    00:35:48.813                             : :Chapter 5
    00:42:23.541                             : :Chapter 6
    00:54:12.875                             : :Chapter 7
    00:59:36.740                             : :Chapter 8
    01:05:07.153                             : :Chapter 9
    01:10:53.666                             : :Chapter 10
    01:17:06.956                             : :Chapter 11
    01:24:14.758                             : :Chapter 12
    01:31:08.004                             : :Chapter 13
    01:42:00.406                             : :Chapter 14
    01:45:57.810                             : :Chapter 15
    01:53:04.069                             : :Chapter 16
    01:58:52.917                             : :Chapter 17
    02:03:58.181                             : :Chapter 18
    02:11:13.282                             : :Chapter 19
    02:17:31.285                             : :Chapter 20

  • Peso: 7.55 GiB

Sinopsis

Vengadores: Infinity War seguirá la lucha de los superhéroes de Marvel contra el mayor villano al que se han enfrentado nunca: Thanos. Su único objetivo será detener a este poderoso antagonista e impedir que se haga con el control de la galaxia. De nuevo veremos al grupo formado por Iron Man, Capitán América, Viuda negra, Thor y Hulk, entre otros. En su nueva e impactante aventura, las Gemas del Infinito estarán en juego, unos querrán protegerlas y otros controlarlas, ¿quién ganará?

Ficha técnica

Video trailer de la película

Enlaces de descarga

Rip de Bluray

Descargar Avengers Infinity War (2018) WEB-DL [Open Matte] 1080p Latino




Aportes de DPeliculasHDmega la pass es:dpeliculashdmega.org Aportes de CinemaniaHD la pass es:cinemaniahdd.com

Películas relacionadas

  • La casa con un reloj en sus paredes (2018) 1080p Latino

    2018
    La casa con un reloj en sus paredes (2018) 1080p Latino

    5.0 1h 45m 2018

    Descargar La casa con un reloj en sus paredes (2018) 1080p Latino, Mega, Google Drive, Torrent. La historia...

    Director: Eli Roth

    Género: Familia

    Actores: Vanessa Anne Williams

  • Godzilla (2014) 1080p Latino

    2014
    Godzilla (2014) 1080p Latino

    0.0 2h 3m 2014

    Descargar Godzilla (2014) 1080p Latino, Mega, Google Drive, Torrent. Gareth Edwards dirige este "reboot",...

    Director: Jessica Clothier

    Género: Acción

    Actores: Yuki Morita

  • Godzilla (2014) Full 1080p Latino

    2014
    Godzilla (2014) Full 1080p Latino

    4.2 2h 3m 2014

    Descargar Godzilla (2014) Full 1080p Latino, Mega, Google Drive, Torrent. Gareth Edwards dirige este...

    Director: Jessica Clothier

    Género: Acción

    Actores: Yuki Morita

Comentarios 4
  • editor3100 - 03 septiembre, 2018

    Amigos de cinemania,gracias por las peliculas, hacen un excelente trabajo,y quisiera ne serio descargar esta open mate, pero quiero que me saquen de dudas,es verdadera open mate? (como el titanic open mate que subieron) o solole hicieron un zoom a la pelicula para que desaparezcan las barras negras? (como en Batman vs Superman open mate, que realmenteno es open mate ni imax,.

    • Dracarys - 04 septiembre, 2018

      si es open matte

  • Marck - 18 agosto, 2018

    Gracias! Los Open Matte la mayoría esta en WEB-DL. ¿Mas adelante subirán en Full Plateadas?

    • dpelis - 19 agosto, 2018

      no creo que salga bluray pero si a los siglos sale, se publicara, saludos