×

¿Problemas para descargar con Mozilla, EDGE? Deshabilita la opción "Abrir vinculos en una pestaña nueva" tal como lo muestra ésta imagen.

Avengers Infinity War (2018) Open Matte Full 1080p Latino

10.593 vistas

Información de Avengers Infinity War (2018) Open Matte Full 1080p Latino

vengadores infinity war 52457 poster

Datos de la película

  • Calidad: Full 1080p
  • Audio: Español Latino AC3 5.1 BLURAY - Ingles DTS 5.1 BLURAY
  • Subtitulos: Español Latino SRT- FORZADOS SRT
  • Resolución: 1920x1080p
  • Formato: MKV
  • Codec: H.264
  • Encoder: Dracarys
  • Mediainfo: Clic para Mostrar Datos Ver
  • Format                      : Matroska
    Format version              : Version 4
    File size                   : 15.8 GiB
    Duration                    : 2 h 29 min
    Overall bit rate            : 15.2 Mb/s
    Movie name                  : CinemaniaHDD.net
    Encoded date                : UTC 2019-04-17 01:08:34
    Writing application         : mkvmerge v30.1.0 ('Forever And More') 64-bit
    Writing library             : libebml v1.3.6 + libmatroska v1.4.9

    Video
    ID                          : 1
    Format                      : AVC
    Format/Info                 : Advanced Video Codec
    Format profile              : High@L4.1
    Format settings             : CABAC / 4 Ref Frames
    Format settings, CABAC      : Yes
    Format settings, ReFrames   : 4 frames
    Codec ID                    : V_MPEG4/ISO/AVC
    Duration                    : 2 h 29 min
    Bit rate                    : 13.0 Mb/s
    Width                       : 1 920 pixels
    Height                      : 1 080 pixels
    Display aspect ratio        : 16:9
    Frame rate mode             : Constant
    Frame rate                  : 23.976 (24000/1001) FPS
    Color space                 : YUV
    Chroma subsampling          : 4:2:0
    Bit depth                   : 8 bits
    Scan type                   : Progressive
    Bits/(Pixel*Frame)          : 0.261
    Stream size                 : 13.6 GiB (86%)
    Writing library             : x264 core 146 r2538 121396c
    Encoding settings           : cabac=1 / ref=4 / deblock=1:-2:-2 / analyse=0x3:0x133 / me=umh / subme=11 / psy=1 / psy_rd=1.00:0.00 / mixed_ref=1 / me_range=32 / chroma_me=1 / trellis=2 / 8x8dct=1 / cqm=0 / deadzone=21,11 / fast_pskip=0 / chroma_qp_offset=-2 / threads=12 / lookahead_threads=2 / sliced_threads=0 / nr=0 / decimate=0 / interlaced=0 / bluray_compat=0 / constrained_intra=0 / bframes=14 / b_pyramid=2 / b_adapt=2 / b_bias=0 / direct=3 / weightb=1 / open_gop=0 / weightp=2 / keyint=240 / keyint_min=23 / scenecut=40 / intra_refresh=0 / rc=2pass / mbtree=0 / bitrate=13000 / ratetol=1.0 / qcomp=0.60 / qpmin=0 / qpmax=69 / qpstep=4 / cplxblur=20.0 / qblur=0.5 / ip_ratio=1.40 / pb_ratio=1.30 / aq=2:0.80
    Language                    : English
    Default                     : No
    Forced                      : No

    Audio #1
    ID                          : 2
    Format                      : DTS
    Format/Info                 : Digital Theater Systems
    Codec ID                    : A_DTS
    Duration                    : 2 h 29 min
    Bit rate mode               : Constant
    Bit rate                    : 1 509 kb/s
    Channel(s)                  : 6 channels
    Channel layout              : C L R Ls Rs LFE
    Sampling rate               : 48.0 kHz
    Frame rate                  : 93.750 FPS (512 SPF)
    Bit depth                   : 24 bits
    Compression mode            : Lossy
    Stream size                 : 1.57 GiB (10%)
    Language                    : English
    Default                     : No
    Forced                      : No

    Audio #2
    ID                          : 3
    Format                      : AC-3
    Format/Info                 : Audio Coding 3
    Commercial name             : Dolby Digital
    Codec ID                    : A_AC3
    Duration                    : 2 h 29 min
    Bit rate mode               : Constant
    Bit rate                    : 640 kb/s
    Channel(s)                  : 6 channels
    Channel layout              : L R C LFE Ls Rs
    Sampling rate               : 48.0 kHz
    Frame rate                  : 31.250 FPS (1536 SPF)
    Bit depth                   : 16 bits
    Compression mode            : Lossy
    Delay relative to video     : 1 s 824 ms
    Stream size                 : 684 MiB (4%)
    Language                    : Spanish
    Service kind                : Complete Main
    Default                     : Yes
    Forced                      : No

    Text #1
    ID                          : 4
    Format                      : UTF-8
    Codec ID                    : S_TEXT/UTF8
    Codec ID/Info               : UTF-8 Plain Text
    Duration                    : 2 h 1 min
    Bit rate                    : 0 b/s
    Count of elements           : 8
    Stream size                 : 174 Bytes (0%)
    Title                       : Forzados
    Language                    : Spanish
    Default                     : Yes
    Forced                      : Yes

    Text #2
    ID                          : 5
    Format                      : UTF-8
    Codec ID                    : S_TEXT/UTF8
    Codec ID/Info               : UTF-8 Plain Text
    Duration                    : 2 h 28 min
    Bit rate                    : 39 b/s
    Count of elements           : 1573
    Stream size                 : 42.6 KiB (0%)
    Language                    : Spanish
    Default                     : No
    Forced                      : No

    Menu
    00:00:00.000                : en:00:00:00.000
    00:11:28.730                : en:00:11:28.730
    00:18:13.884                : en:00:18:13.884
    00:27:23.809                : en:00:27:23.809
    00:35:48.813                : en:00:35:48.813
    00:42:23.541                : en:00:42:23.541
    00:54:12.875                : en:00:54:12.875
    00:59:36.740                : en:00:59:36.740
    01:05:07.153                : en:01:05:07.153
    01:10:53.666                : en:01:10:53.666
    01:17:06.956                : en:01:17:06.956
    01:24:14.758                : en:01:24:14.758
    01:31:08.004                : en:01:31:08.004
    01:42:00.406                : en:01:42:00.406
    01:45:57.810                : en:01:45:57.810
    01:53:04.069                : en:01:53:04.069
    01:58:52.917                : en:01:58:52.917
    02:03:58.181                : en:02:03:58.181
    02:11:13.282                : en:02:11:13.282
    02:17:31.285                : en:02:17:31.285

  • Peso: 15.8 GiB

Sinopsis

El todopoderoso Thanos ha despertado con la promesa de arrasar con todo a su paso, portando el Guantelete del Infinito, que le confiere un poder incalculable. Los únicos capaces de pararle los pies son los Vengadores y el resto de superhéroes de la galaxia, que deberán estar dispuestos a sacrificarlo todo por un bien mayor. Capitán América e Ironman deberán limar sus diferencias, Black Panther apoyará con sus tropas desde Wakanda, Thor y los Guardianes de la Galaxia e incluso Spider-Man se unirán antes de que los planes de devastación y ruina pongan fin al universo. ¿Serán capaces de frenar el avance del titán del caos?

Ficha técnica

Video trailer de la película

Enlaces de descarga

Rip de Bluray

Descargar Avengers Infinity War (2018) Open Matte Full 1080p Latino




Aportes de DPeliculasHDmega la pass es:dpeliculashdmega.org Aportes de CinemaniaHD la pass es:cinemaniahdd.com

Películas relacionadas

descargar Avengers Infinity War (2018) Open Matte Full 1080p Latino Full 1080p 1080p gratis, Avengers Infinity War (2018) Open Matte Full 1080p Latino Full 1080p mega 1 link, Avengers Infinity War (2018) Open Matte Full 1080p Latino Full 1080p pelicula completa, descargar Avengers Infinity War (2018) Open Matte Full 1080p Latino Full 1080p gratis en mega.

Avengers Infinity War (2018) Open Matte Full 1080p Latino pelicula full hd, Avengers Infinity War (2018) Open Matte Full 1080p Latino mega latino, Avengers Infinity War (2018) Open Matte Full 1080p Latino 4k latino, Avengers Infinity War (2018) Open Matte Full 1080p Latino pelicula completa, Avengers Infinity War (2018) Open Matte Full 1080p Latino descargar gratis, descargar Avengers Infinity War (2018) Open Matte Full 1080p Latino pelicula latino, Avengers Infinity War (2018) Open Matte Full 1080p Latino 1 link mega, Avengers Infinity War (2018) Open Matte Full 1080p Latino 1 link google drive, Avengers Infinity War (2018) Open Matte Full 1080p Latino hd 1080p latino.
Comentarios 6
  • cine filo - 22 abril, 2019

    ante las dudas que le han surgido a varios sobre este Open Matte me dedique a hacer mi propia investigacion;
    el termino «open matte» (mate abierto o para nosotros los mortales «sin franjas negraas») se refiere a las ediciones en las que se revierte el corte panoramico estandar de 2.39:1, la razon de esto puede ser que alguien desee hacer una proyeccion en 16:9 (por mencionar ejemplos: «las televisoras») que es el estandar en las Pantallas o TV’s por ejemplo.
    a este punto cabe resaltar que la pelicula fue grabada en su totalidad con camaras Imax, que dicho sea sea de paso la relacion Imax no es de 16:9 si no ligeramente mas alta.
    como disney no lanzo la version completa de 16:9 a bluray (algo que molesto a muchos de hecho) eligiendo asi la misma relacion de aspecto de cine 2.39:1 al realizar el escaneo nuevamente debido a la relacion Imax debe recortarse de los costados para alcanzar el open matte 16:9 sin llegar a hacerlo anamorfico.

    es por eso que en la version teatral (y por tanto en el bluray) se ve una relacion panoramica mas ancha en los costados pero en el open matte vemos mas imagen arriba y abajo.

    hay mucha mas informacion sobre el tema pero con eso creo queda explicado, si tienes alguna duda no duden preguntarme! 🙂 saludos!

  • ANGIE - 18 abril, 2019

    disculpa, es la version rusa que ya habia salido antes o es otra?

  • ANGIE - 18 abril, 2019

    es la version rusa que ya habia salido hace tiempo?

  • oniizumo - 18 abril, 2019

    es la version rusa?

  • Neil - 18 abril, 2019

    Muchas gracias por el aporte, me encantan las peliculas Oppen Matte, agradezco mucho el esfuerzo, saludos cordiales!

  • sergivoh - 18 abril, 2019

    buena pelicula y resolucion gracias