×

¿Problemas para descargar con Mozilla, EDGE? Deshabilita la opción "Abrir vinculos en una pestaña nueva" tal como lo muestra ésta imagen.

Vengadores: Endgame (2019) OPEN MATTE Web-DL 1080p Latino

4.285 vistas

Información de Vengadores: Endgame (2019) OPEN MATTE Web-DL 1080p Latino

vengadores endgame 56265 poster

Datos de la película

  • Calidad: WEBDL
  • Audio: Se especifica abajo de la Sinopsis
  • Subtitulos: Español Latino SRT - Ingles SRT
  • Resolución: 1920X1080p
  • Formato: MKV
  • Codec: H.264
  • Encoder: CinemaniaHDD
  • Mediainfo: Clic para Mostrar Datos Ver
  • Avengers Endgame (2019) OPEN MATTE Web-DL 1080p Latino-CMHDD.mkv
    Format                      : Matroska
    Format version              : Version 4
    File size                   : 7.33 GiB
    Duration                    : 3 h 1 min
    Overall bit rate            : 5 773 kb/s
    Movie name                  : Avengers Endgame (2019) CinemaniaHDD.Net
    Encoded date                : UTC 2019-08-18 19:57:36
    Writing application         : mkvmerge v35.0.0 ('All The Love In The World') 64-bit
    Writing library             : libebml v1.3.9 + libmatroska v1.5.2
    Attachments                 : CINEMANIAHD.png

    Video
    ID                          : 1
    Format                      : AVC
    Format/Info                 : Advanced Video Codec
    Format profile              : High@L4
    Format settings             : CABAC / 4 Ref Frames
    Format settings, CABAC      : Yes
    Format settings, ReFrames   : 4 frames
    Codec ID                    : V_MPEG4/ISO/AVC
    Duration                    : 3 h 1 min
    Bit rate                    : 4 112 kb/s
    Nominal bit rate            : 5 000 kb/s
    Width                       : 1 920 pixels
    Height                      : 1 080 pixels
    Display aspect ratio        : 16:9
    Frame rate mode             : Constant
    Frame rate                  : 23.976 (24000/1001) FPS
    Color space                 : YUV
    Chroma subsampling          : 4:2:0
    Bit depth                   : 8 bits
    Scan type                   : Progressive
    Bits/(Pixel*Frame)          : 0.083
    Stream size                 : 5.22 GiB (71%)
    Title                       : OM HD1080p [Web-DL]
    Writing library             : x264 core 148 r2721 72d53ab
    Encoding settings           : cabac=1 / ref=4 / deblock=1:0:0 / analyse=0x3:0x133 / me=umh / subme=10 / psy=1 / psy_rd=1.00:0.00 / mixed_ref=1 / me_range=24 / chroma_me=1 / trellis=2 / 8x8dct=1 / cqm=0 / deadzone=21,11 / fast_pskip=1 / chroma_qp_offset=-2 / threads=34 / lookahead_threads=5 / sliced_threads=0 / nr=0 / decimate=1 / interlaced=0 / bluray_compat=0 / constrained_intra=0 / bframes=8 / b_pyramid=2 / b_adapt=2 / b_bias=0 / direct=3 / weightb=1 / open_gop=0 / weightp=2 / keyint=100 / keyint_min=50 / scenecut=40 / intra_refresh=0 / rc_lookahead=60 / rc=2pass / mbtree=1 / bitrate=5000 / ratetol=1.0 / qcomp=0.60 / qpmin=0 / qpmax=69 / qpstep=4 / cplxblur=20.0 / qblur=0.5 / vbv_maxrate=5500 / vbv_bufsize=920 / nal_hrd=none / filler=0 / ip_ratio=1.40 / aq=1:1.00
    Language                    : Russian
    Default                     : Yes
    Forced                      : No

    Audio #1
    ID                          : 2
    Format                      : E-AC-3
    Format/Info                 : Enhanced AC-3
    Commercial name             : Dolby Digital Plus
    Format profile              : Blu-ray Disc
    Codec ID                    : A_EAC3
    Duration                    : 3 h 1 min
    Bit rate mode               : Constant
    Bit rate                    : 1 024 kb/s
    Channel(s)                  : 8 channels
    Channel layout              : L R C LFE Ls Rs Lb Rb
    Sampling rate               : 48.0 kHz
    Frame rate                  : 31.250 FPS (1536 SPF)
    Compression mode            : Lossy
    Delay relative to video     : 28 ms
    Stream size                 : 1.30 GiB (18%)
    Title                       : DDP_7.1_Bluray_Esp
    Language                    : Spanish
    Service kind                : Complete Main
    Default                     : Yes
    Forced                      : Yes

    Audio #2
    ID                          : 3
    Format                      : AC-3
    Format/Info                 : Audio Coding 3
    Commercial name             : Dolby Digital
    Codec ID                    : A_AC3
    Duration                    : 3 h 1 min
    Bit rate mode               : Constant
    Bit rate                    : 640 kb/s
    Channel(s)                  : 6 channels
    Channel layout              : L R C LFE Ls Rs
    Sampling rate               : 48.0 kHz
    Frame rate                  : 31.250 FPS (1536 SPF)
    Bit depth                   : 16 bits
    Compression mode            : Lossy
    Stream size                 : 829 MiB (11%)
    Title                       : AC3_5.1_Bluray_Eng
    Language                    : English
    Service kind                : Complete Main
    Default                     : No
    Forced                      : No

    Text #1
    ID                          : 4
    Format                      : UTF-8
    Codec ID                    : S_TEXT/UTF8
    Codec ID/Info               : UTF-8 Plain Text
    Duration                    : 1 h 24 min
    Bit rate                    : 1 b/s
    Count of elements           : 28
    Stream size                 : 645 Bytes (0%)
    Title                       : Sub_Forzados
    Language                    : Spanish
    Default                     : Yes
    Forced                      : Yes

    Text #2
    ID                          : 5
    Format                      : UTF-8
    Codec ID                    : S_TEXT/UTF8
    Codec ID/Info               : UTF-8 Plain Text
    Duration                    : 2 h 47 min
    Bit rate                    : 48 b/s
    Count of elements           : 2197
    Stream size                 : 59.9 KiB (0%)
    Title                       : Sub_Esp
    Language                    : Spanish
    Default                     : No
    Forced                      : No

    Text #3
    ID                          : 6
    Format                      : UTF-8
    Codec ID                    : S_TEXT/UTF8
    Codec ID/Info               : UTF-8 Plain Text
    Duration                    : 2 h 47 min
    Bit rate                    : 49 b/s
    Count of elements           : 2339
    Stream size                 : 61.4 KiB (0%)
    Language                    : English
    Default                     : No
    Forced                      : No

    Menu
    00:00:00.000                : en:Chapter 01
    00:08:05.902                : en:Chapter 02
    00:20:01.700                : en:Chapter 03
    00:26:15.282                : en:Chapter 04
    00:36:57.173                : en:Chapter 05
    00:43:20.598                : en:Chapter 06
    00:48:44.171                : en:Chapter 07
    00:57:36.745                : en:Chapter 08
    01:07:12.612                : en:Chapter 09
    01:16:02.516                : en:Chapter 10
    01:26:25.430                : en:Chapter 11
    01:32:20.118                : en:Chapter 12
    01:38:55.805                : en:Chapter 13
    01:48:12.361                : en:Chapter 14
    01:57:26.915                : en:Chapter 15
    02:05:00.243                : en:Chapter 16
    02:15:06.432                : en:Chapter 17
    02:25:50.450                : en:Chapter 18
    02:34:37.935                : en:Chapter 19
    02:43:03.899                : en:Chapter 20
    02:49:05.344                : en:Chapter 21

  • Peso: 7.33 GiB

Sinopsis

Descargar Vengadores: Endgame (2019) OPEN MATTE Web-DL 1080p Latino. Después de los eventos devastadores de ‘Vengadores: Infinity War’, el universo está en ruinas debido a las acciones de Thanos. Con la ayuda de los aliados que quedaron, los Vengadores deberán reunirse una vez más para intentar deshacer sus acciones y restaurar el orden en el universo de una vez por todas, sin importar cuáles sean las consecuencias… Cuarta y última entrega de la saga «Vengadores».

Audio Español Latino E-AC3 7.1 Bluray – Ingles AC3 5.1 Bluray

Ficha técnica

Video trailer de la película

Enlaces de descarga

Rip de Bluray

Descargar Vengadores: Endgame (2019) OPEN MATTE Web-DL 1080p Latino




Aportes de DPeliculasHDmega la pass es:dpeliculashdmega.org Aportes de CinemaniaHD la pass es:cinemaniahdd.com

Películas relacionadas

descargar Vengadores: Endgame (2019) OPEN MATTE Web-DL 1080p Latino WEBDL 1080p gratis, Vengadores: Endgame (2019) OPEN MATTE Web-DL 1080p Latino WEBDL mega 1 link, Vengadores: Endgame (2019) OPEN MATTE Web-DL 1080p Latino WEBDL pelicula completa, descargar Vengadores: Endgame (2019) OPEN MATTE Web-DL 1080p Latino WEBDL gratis en mega.

Vengadores: Endgame (2019) OPEN MATTE Web-DL 1080p Latino pelicula full hd, Vengadores: Endgame (2019) OPEN MATTE Web-DL 1080p Latino mega latino, Vengadores: Endgame (2019) OPEN MATTE Web-DL 1080p Latino 4k latino, Vengadores: Endgame (2019) OPEN MATTE Web-DL 1080p Latino pelicula completa, Vengadores: Endgame (2019) OPEN MATTE Web-DL 1080p Latino descargar gratis, descargar Vengadores: Endgame (2019) OPEN MATTE Web-DL 1080p Latino pelicula latino, Vengadores: Endgame (2019) OPEN MATTE Web-DL 1080p Latino 1 link mega, Vengadores: Endgame (2019) OPEN MATTE Web-DL 1080p Latino 1 link google drive, Vengadores: Endgame (2019) OPEN MATTE Web-DL 1080p Latino hd 1080p latino.
Comentarios 0